Browse Collections Artists Sources   Search Dates

Add Show    List Management    Help


Grateful Dead 03/18/71
Fox Theatre, St. Louis, MO
Comments Add Comment    Source Collectors    Add to Collection    Add to Want List    History
Source # 130560 Other Sources
Entered by Matt Vernon
Checksums flac-md5 , ffp
Disc Counts 2 / 3
Media Size Compressed: 790.55 MB (828947674 bytes)
Date Circulated
Date Added
07/09/2014
07/09/2014
Source Summary flac16; Recording Info: SBD > R > C > DAT > CD; Transfer Info: CD > WAV > Sound Forge 10 > TLH > FLAC 
  Archive
Source Information - Download Text | Download Zip
THE GRATEFUL DEAD
The Fox Theater
St. Louis, MO.
March 18, 1971

Recording Info:
SBD > R > C > DAT > CD
Transfer Info:
CD > WAV > Sound Forge 10 > TLH > FLAC

FIXES AND NOTES:
Remastered, retracked version of shnid 1663
Patches not possible...no available source.
Eliminated dead air for continuity, but not "Dead Air".
Now has much better dynamic range, presence and clarity.
A neglected but fine performance back in general circulation.

Set 1, Disc 1, track 1,  incomplete, fades in.
Set 1, Disc 1, track 8. incomplete, cut in track.
Set 2, Disc 2, track 1,  incomplete, fades in.
Set 2, Disc 3, track 1, incomplete, fades in.
Set 2, Disc 3, track 4,  incomplete, cut in track.

Mastered and tracked by Bill Guarneri, July 9, 2014.

Set 1, Disc 1
01. Casey Jone
02. Me And My Uncle
03. Big Boss Man
04. Bertha
05. Me And Bobby McGee
06. Loser
07. China Cat Sunflower >
08. I Know You Rider
09. The Rub
10. Playin' In The Band
11. Cumberland Blues

Set 2, Disc 2
01. Truckin' >
02. Drums >
03. The Other One >
04. Wharf Rat
05. Sugar Magnolia

Set 2, Disc 3
01. Greatest Story Ever Told
02. Johnny B. Goode
03. Not Fade Away >
04. Goin' Down The Road Feelin' Bad >
05. Caution (Do Not Stop On Tracks) >
06. Feedback
07. Uncle John's Band

length     expanded size    cdr  WAVE problems  fmt   ratio  filename
     5:29.33       58113260 B   ---   --   ---xx   flac  0.5253  gd1971-03-18d1t01.flac
     3:55.04       41463452 B   ---   --   ---xx   flac  0.5142  gd1971-03-18d1t02.flac
     5:08.48       54444140 B   ---   --   ---xx   flac  0.5313  gd1971-03-18d1t03.flac
     5:27.16       57720476 B   ---   --   ---xx   flac  0.5735  gd1971-03-18d1t04.flac
     6:01.30       63751004 B   ---   --   ---xx   flac  0.5291  gd1971-03-18d1t05.flac
     6:24.04       67747052 B   ---   --   ---xx   flac  0.5583  gd1971-03-18d1t06.flac
     4:47.09       50648012 B   ---   --   ---xx   flac  0.5857  gd1971-03-18d1t07.flac
     4:06.31       43467356 B   ---   --   ---xx   flac  0.6035  gd1971-03-18d1t08.flac
     4:49.10       51003164 B   ---   --   ---xx   flac  0.6024  gd1971-03-18d1t09.flac
     4:33.33       48234860 B   ---   --   ---xx   flac  0.5624  gd1971-03-18d1t10.flac
     5:08.48       54444140 B   ---   --   ---xx   flac  0.5365  gd1971-03-18d1t11.flac
     6:58.19       73779932 B   ---   --   ---xx   flac  0.6349  gd1971-03-18d2t01.flac
     5:50.53       61864700 B   ---   --   ---xx   flac  0.5423  gd1971-03-18d2t02.flac
    12:03.40      127631324 B   ---   --   ---xx   flac  0.5373  gd1971-03-18d2t03.flac
     9:52.64      104579372 B   ---   --   ---xx   flac  0.5948  gd1971-03-18d2t04.flac
     6:28.25       68502044 B   ---   --   ---xx   flac  0.6500  gd1971-03-18d2t05.flac
     2:37.60       27835964 B   ---   --   ---xx   flac  0.7010  gd1971-03-18d3t01.flac
     3:47.35       40125164 B   ---   --   ---xx   flac  0.6956  gd1971-03-18d3t02.flac
     6:22.34       67464812 B   ---   --   ---xx   flac  0.6087  gd1971-03-18d3t03.flac
     4:10.62       44245868 B   ---   --   ---xx   flac  0.5597  gd1971-03-18d3t04.flac
    14:00.72      148345388 B   ---   --   ---xx   flac  0.5346  gd1971-03-18d3t05.flac
     2:10.23       22986140 B   ---   --   ---xx   flac  0.4485  gd1971-03-18d3t06.flac
     7:01.58       74400860 B   ---   --   ---xx   flac  0.5644  gd1971-03-18d3t07.flac
   137:15.61     1452798484 B                            0.5706  (23 files)



Show Checksums
flac-md5
b596bd5a6ee80d63e4edacc348ba6ee4 *gd1971-03-18d1t01.flac
3a99fddd04f29670fa11801d8163128c *gd1971-03-18d1t02.flac
06e04618c4e7cafdb2d36c5d0856c513 *gd1971-03-18d1t03.flac
608abc2234dab23af2bdd18fdf4df4ad *gd1971-03-18d1t04.flac
e6415a1c1feb35374c9b9de99bacebbd *gd1971-03-18d1t05.flac
699a88aba8e2fa4bee11b70ce39b4e1c *gd1971-03-18d1t06.flac
04b4ffd67b419d5abdc0c2e0e52cc2b5 *gd1971-03-18d1t07.flac
36b799d627cdb10bdefcb409f1e79acd *gd1971-03-18d1t08.flac
a74bd85d0d104b2499d13ecd5a4dd2a0 *gd1971-03-18d1t09.flac
ca70fd8d7be2088029415feb242f3024 *gd1971-03-18d1t10.flac
36c8e64baaa043c56a62f5d585403dcf *gd1971-03-18d1t11.flac
02bcc482b2133bc9224eb2883acfb42a *gd1971-03-18d2t01.flac
62848d5f31a53797bbd6fc1f653c26ec *gd1971-03-18d2t02.flac
add341c424ad880ccb0c4efc65cb7bfe *gd1971-03-18d2t03.flac
35b9be39c1574dcbdb08b3f151460478 *gd1971-03-18d2t04.flac
69d7cf192b0251a79fbbf16a6da0cebe *gd1971-03-18d2t05.flac
39807c69ba7525cc6c8bad156b037fbd *gd1971-03-18d3t01.flac
de5f21181a4ebc216abe7b7bf740d289 *gd1971-03-18d3t02.flac
c37fa3a9c58da27ec94aa1950007f6d4 *gd1971-03-18d3t03.flac
33cfb7fef5df4cb5144fb00e2c08874c *gd1971-03-18d3t04.flac
4f7f109d389096abbfa2996b8ba464ec *gd1971-03-18d3t05.flac
57676862d8ab2849c424522d8f0aac72 *gd1971-03-18d3t06.flac
4ba9f8132792dd58f6b2c7c397d296ba *gd1971-03-18d3t07.flac
ffp
gd1971-03-18d1t01.flac:de9519cc0e4f6c3125cc2f03a2297a94
gd1971-03-18d1t02.flac:6ddc5dfabcffec663acfb8cda3c86f4f
gd1971-03-18d1t03.flac:b8c9bdfa2e274dfb177448a88b73fb57
gd1971-03-18d1t04.flac:71d783caf9b86d24bf110379133e422b
gd1971-03-18d1t05.flac:bacb718d8693c9e44d385c3a116b5fab
gd1971-03-18d1t06.flac:6bcc3ee7c41e5fe94cc5aae64f62ad46
gd1971-03-18d1t07.flac:bdae9a63375c758db54c8e9806977a0d
gd1971-03-18d1t08.flac:927ad05aa1e246b5344b0a3e702c3ae8
gd1971-03-18d1t09.flac:6efbcbe5b460bc78b7ec4c1e89c9fcdf
gd1971-03-18d1t10.flac:c761930bc990adb7764c62ec441a751d
gd1971-03-18d1t11.flac:c47494e015934c4ce2872ffffa77e0bb
gd1971-03-18d2t01.flac:ae8f7ae83db2ed0deee8c66b9415385d
gd1971-03-18d2t02.flac:8605536afc335e41cf4f04b227cebc7f
gd1971-03-18d2t03.flac:fdaf4881f1f50da6bd443b98a33bd0d0
gd1971-03-18d2t04.flac:c94b71f25af33890e9f0a6a23272bcd0
gd1971-03-18d2t05.flac:7be1a0a0cd392380227b7428e95725ef
gd1971-03-18d3t01.flac:517365304cd34a89dd5cb3c7aef86d13
gd1971-03-18d3t02.flac:56336710f4f0357ed2215c0580a46776
gd1971-03-18d3t03.flac:9b9937ca5271eb0ddd7ea5315c7879bb
gd1971-03-18d3t04.flac:75676c5d4e85bdb8bf6a9a25494c9db9
gd1971-03-18d3t05.flac:3eb50c6e96108fc76eb28b5aaee863f8
gd1971-03-18d3t06.flac:8f1c2637beb1488b3f448d0326db8676
gd1971-03-18d3t07.flac:7bc277405bbf727ec34b3c7c425bc0fa

Comments
Add Comment
Other Sources (comments)
SBD (7") MR> Cass> DAT> CD;... (7) flac16; Set 2 Only;... (1)
Date User Comment