Browse Collections Artists Sources   Search Dates

Add Show    List Management    Help


Grateful Dead 09/08/91
Madison Square Garden, New York, NY
Comments Add Comment    Source Collectors    Add to Collection    Add to Want List    History
Source # 130711 Other Sources
Entered by Gary Field
Checksums flac-md5 , ffp
Disc Counts 2 / 3
Media Size Compressed: 799.35 MB (838175690 bytes)
Date Circulated
Date Added
07/22/2014
07/22/2014
Source Summary flac16; Recording Info: DSBD > DAT > DAT; Transfer Info: DAT > Sony D8 > WAV > Sound Forge 10 > TLH > FLAC; A fresh transfer of my DAT clone. Upgrade to single source SBD. Transferred, tracked and mastered by Bill Guarneri, July 22, 2014 
  Archive
Source Information - Download Text | Download Zip
THE GRATEFUL DEAD
Madison Square Garden
New York, NY.
September 8, 1991

Recording Info:
DSBD > DAT > DAT
Transfer Info:
DAT > Sony D8 > WAV > Sound Forge 10 > TLH > FLAC

FIXES AND NOTES:
A fresh transfer of my DAT clone. Upgrade to single source SBD.
Different tracking and mastering than existing versions.
Very nice fidelity, a good mix, and a solid later Dead performance.
Bruce Hornsby on piano and keyboards.

Transferred, tracked and mastered by Bill Guarneri, July 22, 2014

Set 1 Disc 1
01. Touch Of Grey >
02. Greatest Story Ever Told
03. Loser
04. Minglewood Blues
05. Candyman
06. Big River >
07. Maggie's Farm
08. Row Jimmy
09. Let It Grow

Set 2 Disc 2
01. Samson And Delilah >
02. Eyes Of The World >
03. Saint Of Circumstance >
04. Jam >
05. Drums >

Set 2 Disc 3
01. Space >
02. The Other One >
03. Wharf Rat >
04. Good Lovin'
Encore:
05. Attics Of My Life

length     expanded size    cdr  WAVE problems  fmt   ratio  filename
     6:44.14       71298572 B   ---   --   ---xx   flac  0.5234  gd1991-09-08d1t01.flac
     4:52.43       51609980 B   ---   --   ---xx   flac  0.5090  gd1991-09-08d1t02.flac
     7:14.56       76689356 B   ---   --   ---xx   flac  0.5031  gd1991-09-08d1t03.flac
     8:09.64       86410172 B   ---   --   ---xx   flac  0.5630  gd1991-09-08d1t04.flac
     6:31.59       69111212 B   ---   --   ---xx   flac  0.5001  gd1991-09-08d1t05.flac
     5:15.34       55646012 B   ---   --   ---xx   flac  0.5701  gd1991-09-08d1t06.flac
     6:52.19       72721532 B   ---   --   ---xx   flac  0.5603  gd1991-09-08d1t07.flac
     9:11.06       97210556 B   ---   --   ---xx   flac  0.5163  gd1991-09-08d1t08.flac
    14:00.07      148192508 B   ---   --   ---xx   flac  0.5742  gd1991-09-08d1t09.flac
     8:04.69       85539932 B   ---   --   ---xx   flac  0.5593  gd1991-09-08d2t01.flac
    13:10.49      139471292 B   ---   --   ---xx   flac  0.4979  gd1991-09-08d2t02.flac
     7:11.64       76178972 B   ---   --   ---xx   flac  0.5666  gd1991-09-08d2t03.flac
     9:05.39       96229772 B   ---   --   ---xx   flac  0.4927  gd1991-09-08d2t04.flac
     4:22.22       46268588 B   ---   --   ---xx   flac  0.4715  gd1991-09-08d2t05.flac
    17:38.37      186718268 B   ---   --   ---xx   flac  0.3659  gd1991-09-08d3t01.flac
     6:03.72       64202588 B   ---   --   ---xx   flac  0.5370  gd1991-09-08d3t02.flac
    10:08.54      107378252 B   ---   --   ---xx   flac  0.4855  gd1991-09-08d3t03.flac
     5:57.67       63132428 B   ---   --   ---xx   flac  0.5574  gd1991-09-08d3t04.flac
     5:11.23       54914540 B   ---   --   ---xx   flac  0.4597  gd1991-09-08d3t05.flac
   155:47.48     1648924532 B                            0.5083  (19 files)



Show Checksums
flac-md5
aeed23bb5560f7ecb0b9c9bd36f72315 *gd1991-09-08d1t01.flac
b51c988d416fbe5c86c7692c7975236c *gd1991-09-08d1t02.flac
9f28def2356564847c1566727d95035d *gd1991-09-08d1t03.flac
5d4d840b98c0ca4d2567eea32f17b147 *gd1991-09-08d1t04.flac
55b9b2ef92f10da7ffae5ef3f0f23464 *gd1991-09-08d1t05.flac
66bd45c87ea6d4f49f113c9761995096 *gd1991-09-08d1t06.flac
fa42bdb7115e4608b7abc2da65d850b1 *gd1991-09-08d1t07.flac
4d31a37f669667b7160f587e6a4a95a1 *gd1991-09-08d1t08.flac
d511d19e1a08bb28c76e686dbbe2d6ee *gd1991-09-08d1t09.flac
6edfd77ce75f27832e9dc5e813eeb794 *gd1991-09-08d2t01.flac
ed4dd6a67c5fee3819cf0177f448ec98 *gd1991-09-08d2t02.flac
0f4d143af49fd9e014e67caeea09321d *gd1991-09-08d2t03.flac
8d739afd4aeddd620d2c8157aa0e8f12 *gd1991-09-08d2t04.flac
b48468c9e115538702189090f7c881fc *gd1991-09-08d2t05.flac
dee5b3facf2439fd897b3a532c36f3cc *gd1991-09-08d3t01.flac
d7fc702e1365c4e6802dbfa992c4cca5 *gd1991-09-08d3t02.flac
0a01e87d9fc270270f0355038f3054f9 *gd1991-09-08d3t03.flac
8746dbf67ea47d57a368e25b18ee5645 *gd1991-09-08d3t04.flac
c4170d96f31ca73ef40f8d7639d23ac0 *gd1991-09-08d3t05.flac
ffp
gd1991-09-08d1t01.flac:4ff6153681fd033599a549d75c7206c1
gd1991-09-08d1t02.flac:848e2634cd4da2cbfb5eec9158fa1a3a
gd1991-09-08d1t03.flac:7a98a323a8de6f2d655a69bcf4b157d4
gd1991-09-08d1t04.flac:660b7367418382c77df21d60d386d7c8
gd1991-09-08d1t05.flac:f890672042ce9c4077b7ebb057481133
gd1991-09-08d1t06.flac:94f4a01b7da039dd252e8f6dbb7d3717
gd1991-09-08d1t07.flac:9de7ebc016bf61f1b50dca1d338330e2
gd1991-09-08d1t08.flac:5f4681474e2deb9e92f365724d0d319e
gd1991-09-08d1t09.flac:294ab02b92b97872b398009b725363ed
gd1991-09-08d2t01.flac:1985790973fabc45be8a816f05307447
gd1991-09-08d2t02.flac:47735005374aa8ee14893ea2fa8aa20a
gd1991-09-08d2t03.flac:1d26dac60ba5d1431271df97a240f5dc
gd1991-09-08d2t04.flac:f94b64d3cf1b3932cfe4a2f4cb9d24df
gd1991-09-08d2t05.flac:3fcc3ba57c860d613d816a7903a1d960
gd1991-09-08d3t01.flac:72cfbe10e46ce6c179090df39fbb2876
gd1991-09-08d3t02.flac:ef844869686f9a246f124c7ac72f58b0
gd1991-09-08d3t03.flac:ceec54a6e7d0c16fb752a2d24949e3b5
gd1991-09-08d3t04.flac:9f8a47489a592ff5a530c2d2177c2e68
gd1991-09-08d3t05.flac:37089a17bad39ec0339a70b3cdea17ba

Comments
Add Comment
Other Sources (comments)
DSBD> DAT> CD; via Jay... (5) flac16;... (1) DSBD > CDA > DAT; Cleaned... (1) flac16; AUD Source:... (0) flac16/48; AUD... (0) flac16; Lineage:... (0) flac16; Sennheiser... (0) DVD-Audio 5.1;... (0) flac16; DTS-Audio-CD... (0) flac16; SBD + AUD... (0) flac24; OTS AUD: 2x... (0)
Date User Comment