Browse Collections Artists Sources   Search Dates

Add Show    List Management    Help


Grateful Dead 10/30/71
Taft Auditorium, Cincinnati, OH
Comments Add Comment    Source Collectors    Add to Collection    Add to Want List    History
Source # 130823 Other Sources
Entered by Matt Vernon
Checksums flac-md5 , ffp
Disc Counts 1 / 2
Media Size Compressed: 645.12 MB (676459165 bytes)
Date Circulated
Date Added
08/01/2014
08/01/2014
Source Summary flac16; Updated Recording Info: Pre FM SBD > MR > RR @ 7 1/2 IPS; Transfer Info: RR > 1978 Teac 3440 > WAV > Sound Forge 10 > TLH > FLAC; Transfered, tracked and mastered by Bill Guarneri, August 1, 2014 
  Archive
Source Information - Download Text | Download Zip
GRATEFUL DEAD
Taft Theater
Cincinnati, OH.
October 30, 1971

Recording Info:
Pre FM SBD > MR > RR @ 7 1/2 IPS
(Had been marked SBD > MR...)

Transfer Info:
RR > 1978 Teac 3440 > WAV > Sound Forge 10 > TLH > FLAC

NOTES AND FIXES:
Shnid 26608 claims transfer from 1/2 master tapes, but this
version is a nice upgrade by A - B comparision. Better clarity,
presence and good dynamic range.
Vocals are attenuated on most tracks for better balance.
Some dead air was eliminated. All "Dead Air" is intact.

Set 1, track 1 missing 1st few notes due to announcement.
Set 2, track 1 missing 1st few notes due to announcement.
Encore, Johnny B. Goode is missing.

Transfered, tracked and mastered by Bill Guarneri, August 1, 2014.

Set 1, disc 1
01. Bertha
02. Me And My Uncle
03. Sugaree
04. Beat It On Down The Line
05. Loser
06. Playin' In The Band
07. Tennessee Jed
08. Jack Straw
09. Big Railroad Blues
10. Me and Bobby McGee
11. Brown Eyed Women
12. One More Saturday Night

Set 2, disc 2
01. Casey Jones
02. Mexicali Blues
03. Comes A Time
04. El Paso
05. Ramble On Rose *
06. Sugar Magnolia
07. Truckin'
08. Not Fad Away >
09. Goin' Down The Road Feelin' Bad >
10. Not Fade Away

* A prime example of why Jerry didn't talk much...very funny.

length     expanded size    cdr  WAVE problems  fmt   ratio  filename
     6:07.33       64816460 B   ---   --   ---xx   flac  0.4664  gd1971-10-30d1t01.flac
     3:49.66       40550876 B   ---   --   ---xx   flac  0.4453  gd1971-10-30d1t02.flac
     7:33.42       80008028 B   ---   --   ---xx   flac  0.4367  gd1971-10-30d1t03.flac
     3:28.06       36705356 B   ---   --   ---xx   flac  0.4736  gd1971-10-30d1t04.flac
     7:30.40       79474124 B   ---   --   ---xx   flac  0.4511  gd1971-10-30d1t05.flac
     6:36.18       69896780 B   ---   --   ---xx   flac  0.5387  gd1971-10-30d1t06.flac
     7:00.49       74203292 B   ---   --   ---xx   flac  0.4771  gd1971-10-30d1t07.flac
     5:36.65       59423324 B   ---   --   ---xx   flac  0.4654  gd1971-10-30d1t08.flac
     3:52.52       41047148 B   ---   --   ---xx   flac  0.4834  gd1971-10-30d1t09.flac
     5:38.06       59637356 B   ---   --   ---xx   flac  0.4857  gd1971-10-30d1t10.flac
     4:38.06       49053356 B   ---   --   ---xx   flac  0.4675  gd1971-10-30d1t11.flac
     4:41.52       49690748 B   ---   --   ---xx   flac  0.4907  gd1971-10-30d1t12.flac
     5:58.60       63292364 B   ---   --   ---xx   flac  0.4740  gd1971-10-30d2t01.flac
     3:26.56       36470156 B   ---   --   ---xx   flac  0.4950  gd1971-10-30d2t02.flac
     8:08.55       86212604 B   ---   --   ---xx   flac  0.4306  gd1971-10-30d2t03.flac
     5:16.25       55801244 B   ---   --   ---xx   flac  0.4640  gd1971-10-30d2t04.flac
     7:28.11       79053116 B   ---   --   ---xx   flac  0.4541  gd1971-10-30d2t05.flac
     6:13.49       65912492 B   ---   --   ---xx   flac  0.5012  gd1971-10-30d2t06.flac
     9:03.12       95813468 B   ---   --   ---xx   flac  0.4747  gd1971-10-30d2t07.flac
     9:56.12      105162668 B   ---   --   ---xx   flac  0.4764  gd1971-10-30d2t08.flac
     8:01.60       84989564 B   ---   --   ---xx   flac  0.5466  gd1971-10-30d2t09.flac
     3:55.70       41618684 B   ---   --   ---xx   flac  0.5075  gd1971-10-30d2t10.flac
   134:03.20     1418833208 B                            0.4768  (22 files)




Show Checksums
flac-md5
dee74e51da08ebbb57f6db387396bf8c *gd1971-10-30d1t01.flac
94846d8abe650ee06f7ae17a5f0a4eec *gd1971-10-30d1t02.flac
765fcd4f7208dfebffc7c18f97e35094 *gd1971-10-30d1t03.flac
0bae5edfe4b4a3d1b17533755329c757 *gd1971-10-30d1t04.flac
d7140594f1ca2fb1007f5325688711f4 *gd1971-10-30d1t05.flac
ab8ba32efd12424145c80093499a06da *gd1971-10-30d1t06.flac
cb14a5ff698db6145b7ab70021f03818 *gd1971-10-30d1t07.flac
67427f43da624d8ca85d4ae88be1a8e9 *gd1971-10-30d1t08.flac
1ebad56c98214da19974893359d8d916 *gd1971-10-30d1t09.flac
10548858051a1e2adbfed05e7341564b *gd1971-10-30d1t10.flac
1e9d97bebb8f3da0edc4b8eb9c2e27a3 *gd1971-10-30d1t11.flac
a0469353136db0745388cbf811f603f1 *gd1971-10-30d1t12.flac
8d3371ca685b08eb165e07d25e45e50c *gd1971-10-30d2t01.flac
49db53a5f509222d8a5a31c3401aa8b8 *gd1971-10-30d2t02.flac
4e577874513976fa6e49d027544fad9c *gd1971-10-30d2t03.flac
3481cdfb2fb48ca0bd056f25f6504f06 *gd1971-10-30d2t04.flac
ec9f64055088adffe5db5e8e801ecf6d *gd1971-10-30d2t05.flac
e264b8f97f95285bd4fa3434be8b18ef *gd1971-10-30d2t06.flac
9506fccf16b15c2c7067c9fc3a88db0a *gd1971-10-30d2t07.flac
7ad5a7125bbf2cad3407ad2a88846a31 *gd1971-10-30d2t08.flac
5f85e6c6ba9a313bceb443912d6574dd *gd1971-10-30d2t09.flac
1afe58df9f8d84db6988a25dd888f33f *gd1971-10-30d2t10.flac
ffp
gd1971-10-30d1t01.flac:498c0cea4c8609be6fc123231c0c25f2
gd1971-10-30d1t02.flac:6f1549f8ddaf62d86491438f57a2954b
gd1971-10-30d1t03.flac:e2429f01dc92988708163fbe3a14b78e
gd1971-10-30d1t04.flac:6636fbe39a9450674fe6281740a576e7
gd1971-10-30d1t05.flac:cc2f8e6ec47d6e7eceaaea8d5a68f96b
gd1971-10-30d1t06.flac:4614df9f7f3fc5348ecfa76e3484b454
gd1971-10-30d1t07.flac:71bf08c74b83d08388ebecb338ecabcc
gd1971-10-30d1t08.flac:270105895de41563540a8382cc6c4c2e
gd1971-10-30d1t09.flac:166121cea9df6462b23f187993c3f3c0
gd1971-10-30d1t10.flac:e9735834c734871aa8ef95357b947dfb
gd1971-10-30d1t11.flac:edf5a4f2adcfd388dbbb34ba80356d03
gd1971-10-30d1t12.flac:afc37a1fc8d3a40f9d52ee94ee27356d
gd1971-10-30d2t01.flac:a6e1a42a5e4b7861a6563d417e62a548
gd1971-10-30d2t02.flac:9b7f6f2f1cca15b7bc53f2edbafb5d88
gd1971-10-30d2t03.flac:8a17e5367fc3d6b68191d26bbadd0cc6
gd1971-10-30d2t04.flac:b4438722cceec94cd28478ee348e8605
gd1971-10-30d2t05.flac:8700dda72307df43acc3d5d4a847c508
gd1971-10-30d2t06.flac:faec392c89fb561115fb1f77d6e1d5de
gd1971-10-30d2t07.flac:89cd603d59b1a10ebc247f8af5be2884
gd1971-10-30d2t08.flac:1ebc24a55f033a429864565c9ab13b43
gd1971-10-30d2t09.flac:592c569207e36e5a15b88b58bb1f9f6b
gd1971-10-30d2t10.flac:39c68edcec51688c91d02e07f03d388b

Comments
Add Comment
Other Sources (comments)
FM> Pioneer RT-707 (7" reel... (2) mixed sources; primary:... (3) flac16; Recording of... (0)
Date User Comment
08/12/2014 JazzFanatic Pre FM SBD.
08/13/2014 JazzFanatic Made a mistake on Set 1 track listing:
Should be;
10. Me and Bobby McGee
11. Brown Eyed Women
12. One More Saturday Night.
08/14/2014 Wharfrat73 Updated source info and track listing.