Browse Collections Artists Sources   Search Dates

Add Show    List Management    Help


Drive-By Truckers 04/03/10
The Electric Factory, Philadelphia, PA
Comments Add Comment    Source Collectors    Add to Collection    Add to Want List    History
Source # 130865 Other Sources
Entered by ziko
Checksums ffp
Disc Counts 0 / 0
Media Size
Date Circulated
Date Added
04/06/2010
08/04/2014
Source Summary Microphone: Milab VM-44 Classic (Cardioid) Microphone Configuration: NOS Preamp, A/D Conversion and Recording Deck: Marantz PMD661 (OWM) Recording Format: Wav file, 24 bits @ 48 kHz Sample Rate CONVERSION Transfer: SDHC-> USB-> PC [1] Song Tracking with CD Wave [2] Levels Normalized with Wavelab 5 [3] File Compression with Trader's Little Helper (Level 6) [4] FLAC File Tagging with Foobar 2000 Live Show Tagger Plugin [5] Album Art tagging with Media Monkey Final Format: FLAC Files, 16 Bits @ 44.1 kHz Sample Rate 
Source Information - Download Text | Download Zip
PERFORMANCE
Band: Drive-By Truckers
Date: April 3, 2010
Venue: Electric Factory
City, State: Philadelphia, PA
Taper: Chris Imburgia

SETLIST & TRACKING
01. Intro->
02. After The Scene Dies
03. Get Downtown
04. (It's Gonna Be) I Told You So
05. This Fuckin' Job
06. Sinkhole
07. Self Destructive Zones
08. The Company I Keep
09. 3 Dimes Down
10. Daddy Learned To Fly
11. Birthday Boy
12. Girls Who Smoke
13. Eyes Like Glue
14. The Living Bubba
15. Zoloft
16. A Ghost To Most
17. Everybody Needs Love
18. Puttin' People On The Moon
19. E: You Got Another*
20. E: 18 Wheels Of Love*
21. E: Zip City*
22. E: Let There Be Rock*
23. E: Shut Up And Get On The Plane*
24. E: Angels and Fuselage*


* Todd Beene from Lucero sitting in on pedal steel

PERFORMANCE NOTES

RECORDING NOTES
Location: DFC / FOB
Microphone: Milab VM-44 Classic (Cardioid)
Microphone Configuration: NOS
Preamp, A/D Conversion and Recording Deck: Marantz PMD661 (OWM)
Recording Format: Wav file, 24 bits @ 48 kHz Sample Rate

CONVERSION
Transfer: SDHC-> USB-> PC
[1] Song Tracking with CD Wave
[2] Levels Normalized with Wavelab 5
[3] File Compression with Trader's Little Helper (Level 6)
[4] FLAC File Tagging with Foobar 2000 Live Show Tagger Plugin
[5] Album Art tagging with Media Monkey
Final Format: FLAC Files, 16 Bits @ 44.1 kHz Sample Rate

FLAC FINGERPRINT
dbt2010-04-03t01.flac:0c6c681893bd16c4eb8747e3247d9f4c
dbt2010-04-03t02.flac:6b4a5cb3082b331dff9908d52303ca43
dbt2010-04-03t03.flac:9cbd5fd5c2fa0c27b59af2cd5c111b93
dbt2010-04-03t04.flac:57ddbb6cd665bca6e90dc59f7e49b034
dbt2010-04-03t05.flac:52262626d0aa39a6228c99eee4b4c4a9
dbt2010-04-03t06.flac:85802a94d3df4cb9fd0a5e8f46daca04
dbt2010-04-03t07.flac:550e9aa633641b5770689a2d025a2f95
dbt2010-04-03t08.flac:595eb78d6d2a68fa0027d7823212d672
dbt2010-04-03t09.flac:84b41798119e172baaa55e97e9eb6124
dbt2010-04-03t10.flac:559496067a8ed0d88e86946ae37af341
dbt2010-04-03t11.flac:6f75d613386db087c1d980a87f99d50e
dbt2010-04-03t12.flac:dcaa9cf6316e15df13e885d2016a78fd
dbt2010-04-03t13.flac:85dd58f2928d06948a15f4f5ffb5a552
dbt2010-04-03t14.flac:c9afb760a3dfccb899a736bc157df287
dbt2010-04-03t15.flac:90cc05d299692ece9f5dd34dfbc1ab29
dbt2010-04-03t16.flac:ecb249871359df6a163146e58db003ec
dbt2010-04-03t17.flac:db61d71117a13c425ddaa7e89611a327
dbt2010-04-03t18.flac:e65958f2e58f53bb24985c74d5f724be
dbt2010-04-03t19.flac:9843bdf66d5b47bf52e57bc330df65b6
dbt2010-04-03t20.flac:b21988c351bf17b1cabb1f231b38db12
dbt2010-04-03t21.flac:44e521fe2a21d4f906d2e15a32197e3e
dbt2010-04-03t22.flac:e4c95e57fb059ad162f778a550c0c775
dbt2010-04-03t23.flac:4a78d08987297ca5e2999c79ed1db525
dbt2010-04-03t24.flac:c827e7749c230b7bba2008b47464ae5d


SECTOR BOUNDARY CONFIRMATION
length     expanded size    cdr  WAVE problems  fmt   ratio  filename
     1:10.20       12395084 B   ---   --   ---xx   flac  0.5156  dbt2010-04-03t01.flac
     4:38.30       49109804 B   ---   --   ---xx   flac  0.5939  dbt2010-04-03t02.flac
     3:26.54       36465452 B   ---   --   ---xx   flac  0.6029  dbt2010-04-03t03.flac
     2:02.74       21694892 B   ---   --   ---xx   flac  0.6097  dbt2010-04-03t04.flac
     5:06.09       53999612 B   ---   --   ---xx   flac  0.6067  dbt2010-04-03t05.flac
     5:00.58       53056460 B   ---   --   ---xx   flac  0.5807  dbt2010-04-03t06.flac
     3:51.50       40866044 B   ---   --   ---xx   flac  0.6183  dbt2010-04-03t07.flac
     8:49.00       93315644 B   ---   --   ---xx   flac  0.5532  dbt2010-04-03t08.flac
     2:57.74       31396892 B   ---   --   ---xx   flac  0.6133  dbt2010-04-03t09.flac
     5:03.05       53461004 B   ---   --   ---xx   flac  0.6092  dbt2010-04-03t10.flac
     3:30.53       37168700 B   ---   --   ---xx   flac  0.6149  dbt2010-04-03t11.flac
     4:12.34       44532812 B   ---   --   ---xx   flac  0.6001  dbt2010-04-03t12.flac
     4:07.21       43620236 B   ---   --   ---xx   flac  0.4587  dbt2010-04-03t13.flac
     6:28.01       68445596 B   ---   --   ---xx   flac  0.5772  dbt2010-04-03t14.flac
     4:18.45       45617084 B   ---   --   ---xx   flac  0.5792  dbt2010-04-03t15.flac
     4:35.32       48585308 B   ---   --   ---xx   flac  0.5864  dbt2010-04-03t16.flac
     6:29.05       68631404 B   ---   --   ---xx   flac  0.5645  dbt2010-04-03t17.flac
    14:59.64      158734172 B   ---   --   ---xx   flac  0.5131  dbt2010-04-03t18.flac
     6:25.41       68010476 B   ---   --   ---xx   flac  0.4809  dbt2010-04-03t19.flac
     9:17.23       98308940 B   ---   --   ---xx   flac  0.5779  dbt2010-04-03t20.flac
     5:30.41       58308476 B   ---   --   ---xx   flac  0.5833  dbt2010-04-03t21.flac
     9:13.49       97664492 B   ---   --   ---xx   flac  0.5962  dbt2010-04-03t22.flac
     4:57.17       52430828 B   ---   --   ---xx   flac  0.6320  dbt2010-04-03t23.flac
    11:30.15      121751324 B   ---   --   ---xx   flac  0.5150  dbt2010-04-03t24.flac
   137:42.65     1457570736 B                            0.5659  (24 files)

Show Checksums
ffp
dbt2010-04-03t01.flac:0c6c681893bd16c4eb8747e3247d9f4c
dbt2010-04-03t02.flac:6b4a5cb3082b331dff9908d52303ca43
dbt2010-04-03t03.flac:9cbd5fd5c2fa0c27b59af2cd5c111b93
dbt2010-04-03t04.flac:57ddbb6cd665bca6e90dc59f7e49b034
dbt2010-04-03t05.flac:52262626d0aa39a6228c99eee4b4c4a9
dbt2010-04-03t06.flac:85802a94d3df4cb9fd0a5e8f46daca04
dbt2010-04-03t07.flac:550e9aa633641b5770689a2d025a2f95
dbt2010-04-03t08.flac:595eb78d6d2a68fa0027d7823212d672
dbt2010-04-03t09.flac:84b41798119e172baaa55e97e9eb6124
dbt2010-04-03t10.flac:559496067a8ed0d88e86946ae37af341
dbt2010-04-03t11.flac:6f75d613386db087c1d980a87f99d50e
dbt2010-04-03t12.flac:dcaa9cf6316e15df13e885d2016a78fd
dbt2010-04-03t13.flac:85dd58f2928d06948a15f4f5ffb5a552
dbt2010-04-03t14.flac:c9afb760a3dfccb899a736bc157df287
dbt2010-04-03t15.flac:90cc05d299692ece9f5dd34dfbc1ab29
dbt2010-04-03t16.flac:ecb249871359df6a163146e58db003ec
dbt2010-04-03t17.flac:db61d71117a13c425ddaa7e89611a327
dbt2010-04-03t18.flac:e65958f2e58f53bb24985c74d5f724be
dbt2010-04-03t19.flac:9843bdf66d5b47bf52e57bc330df65b6
dbt2010-04-03t20.flac:b21988c351bf17b1cabb1f231b38db12
dbt2010-04-03t21.flac:44e521fe2a21d4f906d2e15a32197e3e
dbt2010-04-03t22.flac:e4c95e57fb059ad162f778a550c0c775
dbt2010-04-03t23.flac:4a78d08987297ca5e2999c79ed1db525
dbt2010-04-03t24.flac:c827e7749c230b7bba2008b47464ae5d



Comments
Add Comment
Date User Comment