Browse Collections Artists Sources   Search Dates

Add Show    List Management    Help


Phish 10/18/96
Civic Arena, Pittsburgh, PA
Comments Add Comment    Source Collectors    Add to Collection    Add to Want List    History
Source # 131230 Other Sources
Entered by Jason Sobel
Checksums 48kHz-FFP
Disc Counts 0 / 0
Media Size Compressed: 790.49 MB (828889445 bytes)
Date Circulated
Date Added
09/06/2014
09/06/2014
Source Summary flac16, 48kHz; Microtech Gefell m210 > Sonosax SX-M2 > Tascam DA-P1 > Tascam DA-P1 (@ 48 kHz); Tascam DA-20mkII > Marantz PMD-661 > CD Wave v1.98 > Samplitude SE v9.1.1 (fades) > FLAC v1.2.1 (Level 8); Taped by Duncan Oldham & Lenny Stubbe; Transferred by Jason Sobel 
Source Information - Download Text | Download Zip
Phish
October 18, 1996
Pittsburgh Civic Arena
Pittsburgh, PA

source:
Microtech Gefell m210 > Sonosax SX-M2 > Tascam DA-P1 > Tascam DA-P1 (@ 48 kHz)
mics run XY, from mid-center of the OTS

transfer:
Tascam DA-20mkII > Marantz PMD-661 > SDHC card > usb 2.0 > pc > .wav > CD Wave v1.98 (track splits) > Samplitude SE v9.1.1 (fades) > FLAC v1.2.1 (Level 8)

recorded by Duncan Oldham
patch-taper: Lenny Stubbe
transferred by Jason Sobel ([email protected])
seeded September 6, 2014

notes:
FLAC tags added with metaflac v1.2.1
Big thanks to Lenny Stubbe for letting me borrow his master DATs!
This is the same recording/transfer as: http://db.etree.org/shn/100294
However, this version has not been resampled, and the 48 kHz files are identical to the original DAT recording.

Set I - [67:40]
01 - [00:49] - intro
02 - [08:40] - Runaway Jim
03 - [05:26] - Guelah Papyrus
04 - [02:53] - The Old Home Place
05 - [03:35] - Cars Trucks Buses
06 - [11:39] - Stash
07 - [02:52] - Strange Design
08 - [14:10] - The Divided Sky
09 - [05:04] - Billy Breathes
10 - [07:27] - Taste
11 - [05:05] - Sample in a Jar

Set II - [81:08]
01 - [06:06] - Suzy Greenberg
02 - [12:07] - Maze
03 - [21:05] - You Enjoy Myself
04 - [14:29] - Reba
05 - [05:33] - Waste
06 - [11:37] - Harry Hood
07 - [02:37] - encore break
08 - [07:35] - Julius

-----------------------------------------------------------------------------------

shntool 3.0.4 len mode output:

    length     expanded size    cdr  WAVE problems  fmt   ratio  filename
     0:48.707       9351724 B   cxx   --   ---xx   flac  0.4475  ph1996-10-18set1t01.flac
     8:39.853      99811884 B   cxx   --   ---xx   flac  0.4770  ph1996-10-18set1t02.flac
     5:26.480      62684204 B   cxx   --   ---xx   flac  0.4638  ph1996-10-18set1t03.flac
     2:53.147      33244204 B   cxx   --   ---xx   flac  0.4841  ph1996-10-18set1t04.flac
     3:35.307      41338924 B   cxx   --   ---xx   flac  0.4788  ph1996-10-18set1t05.flac
    11:38.627     134136364 B   cxx   --   ---xx   flac  0.4911  ph1996-10-18set1t06.flac
     2:51.667      32960044 B   cxx   --   ---xx   flac  0.4708  ph1996-10-18set1t07.flac
    14:10.387     163274284 B   cxx   --   ---xx   flac  0.4919  ph1996-10-18set1t08.flac
     5:04.173      58401324 B   cxx   --   ---xx   flac  0.4925  ph1996-10-18set1t09.flac
     7:26.987      85821484 B   cxx   --   ---xx   flac  0.5165  ph1996-10-18set1t10.flac
     5:04.667      58496044 B   cxx   --   ---xx   flac  0.5473  ph1996-10-18set1t11.flac
     6:05.533      70182444 B   cxx   --   ---xx   flac  0.5158  ph1996-10-18set2t01.flac
    12:06.960     139576364 B   cxx   --   ---xx   flac  0.5057  ph1996-10-18set2t02.flac
    21:04.533     242790444 B   cxx   --   ---xx   flac  0.4606  ph1996-10-18set2t03.flac
    14:29.040     166855724 B   cxx   --   ---xx   flac  0.4532  ph1996-10-18set2t04.flac
     5:32.840      63905324 B   cxx   --   ---xx   flac  0.4513  ph1996-10-18set2t05.flac
    11:37.187     133859884 B   cxx   --   ---xx   flac  0.4582  ph1996-10-18set2t06.flac
     2:37.053      30154284 B   cxx   --   ---xx   flac  0.5098  ph1996-10-18set2t07.flac
     7:34.853      87331884 B   cxx   --   ---xx   flac  0.5214  ph1996-10-18set2t08.flac
   148:48.000    1714176836 B                            0.4835  (19 files)

Show Checksums
48kHz-FFP
ph1996-10-18set1t01.flac:9a58c9ed70f5d77ed9c4d215bd59ce6a
ph1996-10-18set1t02.flac:7cf768f7a385b8ea08a623b06fe831d1
ph1996-10-18set1t03.flac:e698cab0a3669b2fb6fc8aa02687a533
ph1996-10-18set1t04.flac:78184e9b8b6b60fb1368fa37418f4008
ph1996-10-18set1t05.flac:9419782cbbbc68958a4648d0bf98fb79
ph1996-10-18set1t06.flac:551b61d513c1d26720be33a2acd725f9
ph1996-10-18set1t07.flac:a946290736d325ef9ba5880dce5e348b
ph1996-10-18set1t08.flac:b912e566d6d0c61eb6fcec414ad74f31
ph1996-10-18set1t09.flac:c44f55c068949d28a53a0a1a490f186c
ph1996-10-18set1t10.flac:79d12abf57d378e9c41fbd27e2f6e514
ph1996-10-18set1t11.flac:60ac4920f160daa75c7f40e388eea7be
ph1996-10-18set2t01.flac:d8fbbc76424b928133ed14bd7afdcbd4
ph1996-10-18set2t02.flac:3558e8141c2aa2e668050bcdd9bcd76a
ph1996-10-18set2t03.flac:4933fc0226c78b3db02102c7615df717
ph1996-10-18set2t04.flac:54bc9c7eb078247d213c8f2943fd006e
ph1996-10-18set2t05.flac:64c40b710ba05569aed6e3aa528947ba
ph1996-10-18set2t06.flac:93607d0f099f9107a1d3a127dcf7c22d
ph1996-10-18set2t07.flac:119e24b3d557cf040e2db788b65e876e
ph1996-10-18set2t08.flac:88c253fa9c5fe7468a2656937d5f919d

Comments
Add Comment
Other Sources (comments)
DFOB (Schoeps CMC64 >... (4) AUD Matrix [Schoeps... (0) flac16, 44.1kHz;... (0) flac16 48kHz... (0)
Date User Comment