Browse Collections Artists Sources   Search Dates

Add Show    List Management    Help


Phish 12/18/99
Hampton Coliseum, Hampton, VA
Comments Add Comment    Source Collectors    Add to Collection    Add to Want List    History
Source # 131281 Other Sources
Entered by Jason Sobel
Checksums 48kHz-FFP
Disc Counts 0 / 0
Media Size Compressed: 1.01 GB (1079446511 bytes)
Date Circulated
Date Added
09/07/2014
09/07/2014
Source Summary flac16, 48kHz; (FOB) Schoeps mk4 > kc5 > cmc6 > Sonosax SX-M2 > Sony TCD-D100 (@ 48kHz); Sony PCM-R500 > Tascam HD-P2 > CF card > usb > pc > .wav > CD Wave v1.98 (track splits) > Samplitude SE v9.1.1 (fades) > FLAC v1.3.0 (Level 8); Taped by Dave Flaschner; Transferred by Jason Sobel 
Source Information - Download Text | Download Zip
Phish
December 18, 1999
Hampton Coliseum
Hampton, VA

source:
(FOB) Schoeps mk4 > kc5 > cmc6 > Sonosax SX-M2 > Sony TCD-D100 (@ 48kHz)

transfer:
Sony PCM-R500 > Tascam HD-P2 > CF card > usb > pc > .wav > CD Wave v1.98 (track splits) > Samplitude SE v9.1.1 (fades) > FLAC v1.3.0 (Level 8)

recorded by Dave Flaschner
transferred by Jason Sobel ([email protected])
seeded September 7, 2014

notes:
FLAC tags added with metaflac v1.3.0
The master DATs were used in this transfer, thanks Dave!
This is the same recording/transfer as:
http://db.etree.org/shn/77313
However, this version has not been resampled.
These 48 kHz files are identical to the original DAT recording.

Set I - 1 hour, 27 minutes, 51 seconds
01 - [18:56] - Harry Hood
02 - [07:37] - Back at the Chicken Shack
03 - [06:17] - Dog Log
04 - [07:58] - Tube
05 - [05:13] - Heavy Things
06 - [05:22] - Back on the Train
07 - [09:40] - First Tube
08 - [03:33] - The Inlaw Josie Wales
09 - [23:14] - You Enjoy Myself

Set II - 1 hour, 43 minutes, 2 second
01 - [19:24] - 2001 >
02 - [16:44] - Sand
03 - [00:51] - The Horse >
04 - [05:01] - Silent In The Morning
05 - [11:03] - Possum
06 - [09:17] - Mike's Song >
07 - [09:21] - Simple
08 - [06:56] - Weekapaug Groove ->
09 - [02:24] - Buffalo Bill >
10 - [04:00] - Weekapaug Groove
11 - [03:30] - encore break
12 - [07:44] - Ya Mar
13 - [06:48] - Sleeping Monkey

-----------------------------------------------------------------------------------
shntool 3.0.4 len mode output:

    length     expanded size    cdr  WAVE problems  fmt   ratio  filename
    18:55.760     218065964 B   cxx   --   ---xx   flac  0.4732  ph1999-12-18set1t01.flac
     7:36.840      87713324 B   cxx   --   ---xx   flac  0.4874  ph1999-12-18set1t02.flac
     6:17.347      72450604 B   cxx   --   ---xx   flac  0.4831  ph1999-12-18set1t03.flac
     7:57.987      91773484 B   cxx   --   ---xx   flac  0.5143  ph1999-12-18set1t04.flac
     5:13.053      60106284 B   cxx   --   ---xx   flac  0.4706  ph1999-12-18set1t05.flac
     5:22.280      61877804 B   cxx   --   ---xx   flac  0.4753  ph1999-12-18set1t06.flac
     9:40.493     111454764 B   cxx   --   ---xx   flac  0.5431  ph1999-12-18set1t07.flac
     3:33.147      40924204 B   cxx   --   ---xx   flac  0.3475  ph1999-12-18set1t08.flac
    23:14.093     267665964 B   cxx   --   ---xx   flac  0.4916  ph1999-12-18set1t09.flac
    19:24.333     223552044 B   cxx   --   ---xx   flac  0.4931  ph1999-12-18set2t01.flac
    16:43.920     192752684 B   cxx   --   ---xx   flac  0.5075  ph1999-12-18set2t02.flac
     0:50.653       9725484 B   cxx   --   ---xx   flac  0.3899  ph1999-12-18set2t03.flac
     5:01.280      57845804 B   cxx   --   ---xx   flac  0.4738  ph1999-12-18set2t04.flac
    11:02.587     127216684 B   cxx   --   ---xx   flac  0.5059  ph1999-12-18set2t05.flac
     9:16.827     106910764 B   cxx   --   ---xx   flac  0.5258  ph1999-12-18set2t06.flac
     9:21.187     107747884 B   cxx   --   ---xx   flac  0.4767  ph1999-12-18set2t07.flac
     6:55.653      79805484 B   cxx   --   ---xx   flac  0.4985  ph1999-12-18set2t08.flac
     2:24.120      27671084 B   cxx   --   ---xx   flac  0.4848  ph1999-12-18set2t09.flac
     4:00.213      46121004 B   cxx   --   ---xx   flac  0.5407  ph1999-12-18set2t10.flac
     3:29.733      40268844 B   cxx   --   ---xx   flac  0.4543  ph1999-12-18set2t11.flac
     7:43.880      89065004 B   cxx   --   ---xx   flac  0.4922  ph1999-12-18set2t12.flac
     6:47.613      78261804 B   cxx   --   ---xx   flac  0.4574  ph1999-12-18set2t13.flac
   190:53.000    2198976968 B                            0.4909  (22 files)

Show Checksums
48kHz-FFP
ph1999-12-18set1t01.flac:7f9ab51dc11890f349c471730623bfd8
ph1999-12-18set1t02.flac:0993f404ca239128bf3c9de39fccf6df
ph1999-12-18set1t03.flac:039bfa5c622fcec2734b1625f472f074
ph1999-12-18set1t04.flac:e35fa17256e537fe980c803cee75bac5
ph1999-12-18set1t05.flac:76c5c5843735ae9b95bf048ecaf1220d
ph1999-12-18set1t06.flac:527dd67918f62aad4be2f1e0e8ab469b
ph1999-12-18set1t07.flac:3044c92dba47caba1dcc5b718bcdfd4f
ph1999-12-18set1t08.flac:f580543a4562c36e3f42c73222f124ac
ph1999-12-18set1t09.flac:241b4465b12b7036e6aee08c70dd0cc2
ph1999-12-18set2t01.flac:7909d1f7d113c0a2749c9632ab3b9e85
ph1999-12-18set2t02.flac:72459890035e63d9a6c1402da163a98e
ph1999-12-18set2t03.flac:528a634dba15661b057487f259038484
ph1999-12-18set2t04.flac:3b5398ddddb78e9a069f7aade0927998
ph1999-12-18set2t05.flac:66aae328a417c145fc118f5bb9702f3e
ph1999-12-18set2t06.flac:64fc35e742d6fa287b1e7bd55ccaf104
ph1999-12-18set2t07.flac:c363b061119dff143a9136a24a0fa6be
ph1999-12-18set2t08.flac:9029b23cff1e0e743a06afe37e1b34d8
ph1999-12-18set2t09.flac:ddfd08621eaea186e15b85a52b075779
ph1999-12-18set2t10.flac:441ad151091ddd0bba645725af201c98
ph1999-12-18set2t11.flac:ebafea8efff630d1056e8e327488e7f5
ph1999-12-18set2t12.flac:0c65ce0c366a2d4d392550528429e35b
ph1999-12-18set2t13.flac:a77bfd697033440d1fd8b7c2543bbff4

Comments
Add Comment
Other Sources (comments)
FOB Schoeps mk2h (in hat... (6) B+K 4011> EAA PSP-2> Apogee... (0) taper D. Pecoraro... (0) FOB Schoeps mk4v> kc-y... (0) Microtech Gefell M210> Oade... (6) Schoeps mk4v > VMS021b >... (0) FOB Schoeps mk4v (DFC, in... (0) Microtech Geffel m210 >... (2) flac16, 44.1kHz;... (0) Schoeps CMC6/mk41 > Apogee... (0) Microtech Gefell M210's >... (0) flac16, 44kHz;... (0) flac16, 44kHz; (FOB)... (0) flac16, 48kHz;... (0) flac16, 44kHz;... (0) flac16 AKG... (0) flac16 48khz ... (0)
Date User Comment