Browse Collections Artists Sources   Search Dates

Add Show    List Management    Help


Grateful Dead 10/29/73
Kiel Auditorium, St. Louis, MO
Comments Add Comment    Source Collectors    Add to Collection    Add to Want List    History
Source # 131409 Other Sources
Entered by Matt Vernon
Checksums flac-md5 , ffp
Disc Counts 0 / 0
Media Size Compressed: 1.11 GB (1195735992 bytes)
Date Circulated
Date Added
09/25/2014
09/25/2014
Source Summary flac16; Matrix mix of Shnid 32352(sbd) and Shnid 116118(aud) 
  Archive
Source Information - Download Text | Download Zip
Grateful Dead
Kiel Auditorium
St Louis, Missouri
October 29, 1973

Matrix mix of Shnid 32352(sbd) and Shnid 116118(aud)
Mixed by Nick Crump
Eugene, Oregon
September 2014

Both sources have numerous cuts. Soundboard source has patches with another uncirculated audience source used. Longer patches were removed, shorter ones left in. No patches were used for the gaps in the audience source. Audience source is hissy, noticible during quieter parts in particular. El Paso is not on the sbd source, so aud only. Aud ends near the conclusion of Sugar Magnolia, so only soundboard thereafter.

Source 1(sbd): gd73-10-29.sbd.miller.32352.sbeok.flac16
Recording Info:
SBD -> Master Reel (7inch Master Reels @ 7.5ips 1/2trk) ->
Cassette (Tascam 122mkIII) -> Dat (Panasonic 3700/44.1k)
Transfer Info:
Dat (Sony D8) -> RME Hammerfall Digiface -> Sony Vaio C1VP ->
Samplitude Professional v7.02 -> FLAC
(3 Discs Audio / 2 Disc FLAC)
Transferred and Edited By Charlie Miller
charliemiller87[email protected]
July 4, 2004 & February 10, 2006
Patch Info:
The following songs have patches from a 2nd Gen AUD:
Cold Rain And Snow 2:10 - 2:20
Mexicali Blues 0:00 - 0:03
Row Jimmy 0:00 - 0:26
El Paso 0:00 - 4:05 (complete song)
Around And around 0:00 - 0:02
Truckin 7:27 - 7:55
The Other One 14:14 - 14:16
Notes:
-- Thanks to Rob Eaton for letting me copy his dats.
-- Thanks to Matt Smith for the patch source discs.

Source 2(aud): gd73-10-29.116118.aud.cousinit.flac16
Taper:  Unknown
Source: Unknown Mics and Deck>??>C>WAV>FLAC
Transferred and Encoded by Cousinit
Notes:
A nice AUD from 73. Sorry not much info for source and lineage.  I only know the show was recorded by a Chicago area taper.
Enjoy!


*Set 1*:
d1t01 - Cold Rain And Snow
d1t02 - Beat It On Down The Line
d1t03 - Brown Eyed Women
d1t04 - Mexicali Blues
d1t05 - Don't Ease Me In
d1t06 - Black Throated Wind
d1t07 - Tennessee Jed
d1t08 - The Race Is On
d1t09 - Row Jimmy
d1t10 - El Paso (aud only)
d1t11 - Eyes Of The World
d1t12 - China Doll
d1t13 - Around And Around

*Set 2*:
d2t01 - The Promised Land
d2t02 - Bertha
d2t03 - Greatest Story Ever Told
d2t04 - Loser
d2t05 - Big River
d2t06 - Brokedown Palace
d3t01 - Truckin'
d3t02 - Drums
d3t03 - The Other One
d3t04 - Wharf Rat
d3t05 - Sugar Magnolia

*Encore*:
d3t06 - Casey Jones (sbd only)


Thanks to everyone who provided the sources used: Charlie Miller, Rob Eaton, Matt Smith, Cousinit and Unknown Taper.


   length     expanded size    cdr  WAVE problems  fmt   ratio  filename
     5:42.50       60446444 B   ---   --   ---xx   flac  0.6323  gd73-10-29d1t01.flac
     3:17.37       34837868 B   ---   --   ---xx   flac  0.6521  gd73-10-29d1t02.flac
     4:38.15       49074524 B   ---   --   ---xx   flac  0.6274  gd73-10-29d1t03.flac
     3:27.71       36681836 B   ---   --   ---xx   flac  0.6558  gd73-10-29d1t04.flac
     3:30.32       37119308 B   ---   --   ---xx   flac  0.6387  gd73-10-29d1t05.flac
     6:51.26       72561596 B   ---   --   ---xx   flac  0.6222  gd73-10-29d1t06.flac
     7:40.44       81247532 B   ---   --   ---xx   flac  0.6214  gd73-10-29d1t07.flac
     3:15.69       34560332 B   ---   --   ---xx   flac  0.6183  gd73-10-29d1t08.flac
     9:17.41       98351276 B   ---   --   ---xx   flac  0.6055  gd73-10-29d1t09.flac
     4:08.46       43855436 B   ---   --   ---xx   flac  0.6610  gd73-10-29d1t10.flac
    15:05.19      159686732 B   ---   --   ---xx   flac  0.6330  gd73-10-29d1t11.flac
     5:28.58       57995660 B   ---   --   ---xx   flac  0.6082  gd73-10-29d1t12.flac
     5:14.16       55427276 B   ---   --   ---xx   flac  0.6311  gd73-10-29d1t13.flac
     2:53.67       30674828 B   ---   --   ---xx   flac  0.6468  gd73-10-29d2t01.flac
     5:58.30       63221804 B   ---   --   ---xx   flac  0.6524  gd73-10-29d2t02.flac
     5:05.29       53870252 B   ---   --   ---xx   flac  0.6382  gd73-10-29d2t03.flac
     6:50.21       72373436 B   ---   --   ---xx   flac  0.6186  gd73-10-29d2t04.flac
     4:54.00       51861644 B   ---   --   ---xx   flac  0.6406  gd73-10-29d2t05.flac
     6:08.40       65009324 B   ---   --   ---xx   flac  0.6155  gd73-10-29d2t06.flac
    17:53.46      189385436 B   ---   --   ---xx   flac  0.6329  gd73-10-29d3t01.flac
     2:25.05       25589804 B   ---   --   ---xx   flac  0.6232  gd73-10-29d3t02.flac
    22:09.39      234527372 B   ---   --   ---xx   flac  0.6338  gd73-10-29d3t03.flac
    10:27.08      110621660 B   ---   --   ---xx   flac  0.6181  gd73-10-29d3t04.flac
     9:34.44      101357132 B   ---   --   ---xx   flac  0.6489  gd73-10-29d3t05.flac
     7:43.65       81826124 B   ---   --   ---xx   flac  0.5777  gd73-10-29d3t06.flac
   179:43.18     1902164636 B                            0.6286  (25 files)



Show Checksums
flac-md5
273425ffba31111c46e06d0929b08d5f *gd73-10-29d1t01.flac
5fcc15bbda4327736db18fabb1ce5431 *gd73-10-29d1t02.flac
330f246d4780cbe24fc4541bf0ccdb9a *gd73-10-29d1t03.flac
4f33281838753a91e84a11e4076cd7d2 *gd73-10-29d1t04.flac
622f17d42cfb31ea95f20dcfb15b3b53 *gd73-10-29d1t05.flac
88a45ae5314a5e9dd5a0e71b4506624f *gd73-10-29d1t06.flac
6d7bfcf6399086ef2fb04a9eff156807 *gd73-10-29d1t07.flac
3ee3b399a2b8d72da274975d68c1883f *gd73-10-29d1t08.flac
e6a7abc5d069d78e2648d75788bc3491 *gd73-10-29d1t09.flac
de17e1a49fc797430b4a5cd163f84f50 *gd73-10-29d1t10.flac
4d0fcbf1eb58500f48a525d011c548b5 *gd73-10-29d1t11.flac
696749d48e169c221e7f1d0eaae59661 *gd73-10-29d1t12.flac
3b1713a0fc99a16a1b980306f7c247c7 *gd73-10-29d1t13.flac
5645d390e4eed3ba5ffba171dc4426a1 *gd73-10-29d2t01.flac
86694c80a41d70647db7252d012b2e34 *gd73-10-29d2t02.flac
72eeb73dc17671fd61305f608ddca89e *gd73-10-29d2t03.flac
d81e43ddd117d53b419ea064cc29c08c *gd73-10-29d2t04.flac
19fadbeba195833c582d8e862d8a28d0 *gd73-10-29d2t05.flac
a2b2302605fb5555729295f839474e6a *gd73-10-29d2t06.flac
bd6d2cc18a86f6ac31c150a7fb12681b *gd73-10-29d3t01.flac
ce265c1bea69b92f8e329d2775d6d49d *gd73-10-29d3t02.flac
ba2216f2d98f26c6ab5587157e111150 *gd73-10-29d3t03.flac
9e747c90ef067119d373ce2443cfe2c6 *gd73-10-29d3t04.flac
1fb7f62f63c242de7701af6684d7bb82 *gd73-10-29d3t05.flac
6cb9d5db989febe7203b690d83bce035 *gd73-10-29d3t06.flac
ffp
gd73-10-29d1t01.flac:da2b35a27a9d662399bc3c9845021e27
gd73-10-29d1t02.flac:0209c76e8df08deb115cc3231fe98877
gd73-10-29d1t03.flac:01240c91c1c1991c7bb686c825f363c8
gd73-10-29d1t04.flac:1ef6d3716ca99e73fd9b590876967c21
gd73-10-29d1t05.flac:bea300c41d4c0a336ff4d004e79d9f87
gd73-10-29d1t06.flac:3c9ad3eb340fcc190580d4bf77fba1e1
gd73-10-29d1t07.flac:b2bf49db5fd9227e36cc85b10ecb1a10
gd73-10-29d1t08.flac:c9d4bb9b8ac8739ceacdc33e445e5d9b
gd73-10-29d1t09.flac:b66265efe4b3f6b53a7dfaab6870d4e2
gd73-10-29d1t10.flac:a6e1630f3b4b0619757c3d8e143dbbfb
gd73-10-29d1t11.flac:cb07cc3f925b94424f7016b4bed012b8
gd73-10-29d1t12.flac:53669b6f38a7f918a5e7a8162acef3e0
gd73-10-29d1t13.flac:15c46cc5aa399d79e72d22a2cf27207b
gd73-10-29d2t01.flac:66ad5b8906da01739e5cb8f96ee46fa0
gd73-10-29d2t02.flac:c4fea3ea3b3f251d634d46e02e56492d
gd73-10-29d2t03.flac:b98b5c9233597b1fd7956c7cdbdb3be8
gd73-10-29d2t04.flac:8bd3fe044585f5a46569ecbfab5bc00e
gd73-10-29d2t05.flac:847d5b77bb4dce6648af90d29b7f1206
gd73-10-29d2t06.flac:327c2d06aa2cae50d6888c2806793b1b
gd73-10-29d3t01.flac:5c2589d1ed3422d1ca42cfd151864983
gd73-10-29d3t02.flac:d49e34d89bd10e44666453131f1d0283
gd73-10-29d3t03.flac:70ffd3cffe963cec90a5f99f80ca490d
gd73-10-29d3t04.flac:7c76f7c6340f97aec80eaf61d5314531
gd73-10-29d3t05.flac:ede127d50d897ef30168624c77c9cf5a
gd73-10-29d3t06.flac:ae418e5e9ef0c24c9ed4f97b1889d0c8

Comments
Add Comment
Other Sources (comments)
MSR> C> DAT> Circulation>... (3) Reel master > 1 cassette... (1) Source: MSR > C > D > CD... (1) flac16; Recording... (0) flac16; Taper:... (0) flac16; Set 2,... (1)
Date User Comment