Browse Collections Artists Sources   Search Dates

Add Show    List Management    Help


Grateful Dead 10/19/81
Sports Palace, Barcelona, Spain
Comments Add Comment    Source Collectors    Add to Collection    Add to Want List    History
Source # 131465 Other Sources
Entered by Matt Vernon
Checksums flac-md5 , ffp
Disc Counts 0 / 0
Media Size Compressed: 3.49 GB (3743045520 bytes)
Uncompressed: 5.16 GB (5544968912 bytes)
Date Circulated
Date Added
10/05/2014
10/05/2014
Source Summary flac24; Beyer M-160>Sony TC-D5m; Transfer 1st set MAC>Sony TC-K3es>USBPre2; Transfer 2nd set 1st Gen>Sony TC-K3es>USBPre2; Recorded center directly in back of soundboard; Recorded and transfered By Richie stankiewicz 
  Archive
Source Information - Download Text | Download Zip
Grateful Dead
Palace De Sports
Barcelona Spain
1981-10-19


24bit/96kHz file-set

s1t01 tuning
s1t02 Jack straw
s1t03 Franklin's Tower
s1t04 Mama Tried
s1t05 Mexicali Blues
s1t06 Loser
s1t07 C.C. Rider
s1t08 Tennessee Jed
s1t09 Althea*
s1t10 Let it Grow


s2t01 crowd
s2t02 Scarlet Begonias
s2t03 Fire on the Mountain
s2t04 Lost Sailor
s2t05 St. of Circumstance
s2t06 Jam
s2t07 /Drums>Space
s2t08 Spanish Jam(in spain)
s2t09 The Other One
s2t10 Stella Blue
s2t11 Sugar Magnolia
s2t12 Don't Ease Me In

*passenger missing after Tennessee Jed
*patch on Althea (Zappa Source)Thanks Zappa
*portion of drums missing
Beyer M-160>Sony TC-D5m
Transfer 1st set MAC>Sony TC-K3es>USBPre2
Transfer 2nd set 1st Gen>Sony TC-K3es>USBPre2
Recorded center directly in back of soundboard
Recorded and transfered By Richie stankiewicz
2014-10-04

length     expanded size    cdr  WAVE problems  fmt   ratio  filename
    1:17.216      44476346 B   cxx   --   ---xx   flac  0.6659  gd1981-10-19s1t01.flac
    5:31.002     190657430 B   cxx   --   ---xx   flac  0.6894  gd1981-10-19s1t02.flac
   14:25.516     498537302 B   cxx   --   ---xx   flac  0.6952  gd1981-10-19s1t03.flac
    2:28.219      85373900 B   cxx   --   ---xx   flac  0.6973  gd1981-10-19s1t04.flac
    4:59.468     172493588 B   cxx   --   ---xx   flac  0.6993  gd1981-10-19s1t05.flac
    7:11.856     248748884 B   cxx   --   ---xx   flac  0.6861  gd1981-10-19s1t06.flac
    8:39.118     299012168 B   cxx   --   ---xx   flac  0.6823  gd1981-10-19s1t07.flac
    9:08.240     315786308 B   cxx   --   ---xx   flac  0.6829  gd1981-10-19s1t08.flac
    7:54.852     273514748 B   cxx   --   ---xx   flac  0.6375  gd1981-10-19s1t09.flac
   14:33.094     502902230 B   cxx   --   ---xx   flac  0.6752  gd1981-10-19s1t10.flac
    0:45.000      25919852 B   cxx   --   ---xx   flac  0.6541  gd1981-10-19s2t01.flac
   14:28.607     500317838 B   cxx   --   ---xx   flac  0.6800  gd1981-10-19s2t02.flac
    9:47.945     338656178 B   cxx   --   ---xx   flac  0.6799  gd1981-10-19s2t03.flac
    7:17.476     251986106 B   cxx   --   ---xx   flac  0.6665  gd1981-10-19s2t04.flac
    7:44.936     267803024 B   cxx   --   ---xx   flac  0.6853  gd1981-10-19s2t05.flac
    6:11.764     214135910 B   cxx   --   ---xx   flac  0.6566  gd1981-10-19s2t06.flac
    2:01.725      70113578 B   cxx   --   ---xx   flac  0.6487  gd1981-10-19s2t07.flac
    3:18.021     114059930 B   cxx   --   ---xx   flac  0.6522  gd1981-10-19s2t08.flac
    7:16.537     251445350 B   cxx   --   ---xx   flac  0.6641  gd1981-10-19s2t09.flac
   10:29.721     362719508 B   cxx   --   ---xx   flac  0.6544  gd1981-10-19s2t10.flac
   10:58.192     379118846 B   cxx   --   ---xx   flac  0.6758  gd1981-10-19s2t11.flac
    3:58.177     137189888 B   cxx   --   ---xx   flac  0.6640  gd1981-10-19s2t12.flac
  160:26.680    5544968912 B                            0.6750  (22 files)


Show Checksums
flac-md5
bcf104ab5710b57447e9150840a3273e *gd1981-10-19s1t01.flac
9a9305a1ad551c95fe070dcfa06c7317 *gd1981-10-19s1t02.flac
1994611406edd0497cb10bd05801a3f5 *gd1981-10-19s1t03.flac
eb401272116954a7940eaddd979dd63a *gd1981-10-19s1t04.flac
9262ceb8fa220aeeba142be5df76e403 *gd1981-10-19s1t05.flac
7630d70a4f03bc47f402621a500481c5 *gd1981-10-19s1t06.flac
6052aa0c8231259a1a1cb3a5b9c25499 *gd1981-10-19s1t07.flac
4229aa955211e5f7c1f3008d35f959ac *gd1981-10-19s1t08.flac
915f809cd61ac9c93e167c7d577f65dc *gd1981-10-19s1t09.flac
e27151992240b05f466c7600a853dedf *gd1981-10-19s1t10.flac
53a7448998da5dac97bb51d29b12d4ad *gd1981-10-19s2t01.flac
9c24b55be28c9bb18fb8041a29abaf83 *gd1981-10-19s2t02.flac
688d829911046634b4d24c4ad5bed29f *gd1981-10-19s2t03.flac
3b0f9ae98e4ab494952372c7302b3066 *gd1981-10-19s2t04.flac
80c65c2ee0415f01b976e1e87c6a59a1 *gd1981-10-19s2t05.flac
54bd3c871e746f221bd08bf05cd51d08 *gd1981-10-19s2t06.flac
0237c07f4264509cccbc8350e02fe99a *gd1981-10-19s2t07.flac
2b1a766f1f4f40f09ab463ac3c2e3347 *gd1981-10-19s2t08.flac
5aacf74f5dacd843d5e8e087393d6ea5 *gd1981-10-19s2t09.flac
ab24dd4e3b3b2769fc949394f4efa61d *gd1981-10-19s2t10.flac
5bc91db57c18a9f544b8c1a3ed5eb1e6 *gd1981-10-19s2t11.flac
8e74b5094af1b2738636baca6de5f8e1 *gd1981-10-19s2t12.flac
ffp
gd1981-10-19s1t01.flac:439166d368720d82d57054761586e288
gd1981-10-19s1t02.flac:03c26302fde2653ad18e2826ed3620cb
gd1981-10-19s1t03.flac:a4f005300e43081f18954c7f8bc99f7c
gd1981-10-19s1t04.flac:f9004502667183f3123bd7e7767daf07
gd1981-10-19s1t05.flac:6d9c5a1a76e23d4302eb338083bde823
gd1981-10-19s1t06.flac:37658e4d6694e52f8add8303a6dac443
gd1981-10-19s1t07.flac:05a73ad5fc26d2694eb7dbf76c51834d
gd1981-10-19s1t08.flac:b52d093020f72706640e5edb3b19d2a4
gd1981-10-19s1t09.flac:a441bcc8b82f7682f238761e58736b78
gd1981-10-19s1t10.flac:a7e1b5309545a4ed13884dd8ee5e5ec4
gd1981-10-19s2t01.flac:53ed118e087531009b403750764e8282
gd1981-10-19s2t02.flac:59c4832e0e3050cd8cf390f63f44013e
gd1981-10-19s2t03.flac:e0ce74fdd87b5e3f85a6636d5387ecee
gd1981-10-19s2t04.flac:016aa94649b70409cdb7382fa0802f36
gd1981-10-19s2t05.flac:98a807a51ed2bede006dc08bca55afbf
gd1981-10-19s2t06.flac:3caf95c5d9fa99e0146e852ce24496ed
gd1981-10-19s2t07.flac:2028b03fc11a24635bf33783a17fb093
gd1981-10-19s2t08.flac:c5c6340e833f08ac7b1d8478b0efae90
gd1981-10-19s2t09.flac:1ceb0d1dd67f9984cf314bcb81b2e099
gd1981-10-19s2t10.flac:d69c38f72bb1196c8d61820d5fe3712c
gd1981-10-19s2t11.flac:6b85a1ed0a33f2e44c8b2e124192cd22
gd1981-10-19s2t12.flac:e8457a4ec652bfdc5d4ce1f0db5aa9c1

Comments
Add Comment
Other Sources (comments)
SBD: CM > CASS > DAT > Pro... (1) flac16; Recording... (0) flac16: recording:... (1) flac16; Source:... (0) flac16; 2 source... (1)
Date User Comment