Browse Collections Artists Sources   Search Dates

Add Show    List Management    Help


Grateful Dead 01/21/71
Freeborn Hall, University of California, Davis, CA
Comments Add Comment    Source Collectors    Add to Collection    Add to Want List    History
Source # 131517 Other Sources
Entered by Matt Vernon
Checksums ffp , flac-md5
Disc Counts 0 / 0
Media Size Compressed: 689.86 MB (723367709 bytes)
Uncompressed: 1.13 GB (1215737788 bytes)
Date Circulated
Date Added
10/11/2014
10/11/2014
Source Summary flac16; Recording Info: AUD (Unknown Gear) -> ? -> Reel (Maxell UD 35-90 @ 3.75ips); Transfer Info: Reel (Akai GX636) -> Apogee Mini-Me (24bit/96k) -> Apogee Mini-DAC -> Wavelab v5 -> FLAC/24; Mastering Info: FLAC/24 -> Adobe Audition CS5.5 -> Samplitude Professional v11.2.1 -> FLAC/16; All Mastering By Charlie Miller 
  Archive
Source Information - Download Text | Download Zip
Grateful Dead - January 21, 1971
Freeborn Hall - Davis, CA

Recording Info:
AUD (Unknown Gear) -> ? -> Reel (Maxell UD 35-90 @ 3.75ips)

Transfer Info:
Reel (Akai GX636) -> Apogee Mini-Me (24bit/96k) -> Apogee Mini-DAC -> Wavelab v5 -> FLAC/24

Mastering Info:
FLAC/24 -> Adobe Audition CS5.5 -> Samplitude Professional v11.2.1 -> FLAC/16
(2 Discs Audio / 1 DVD FLAC)

All Mastering By Charlie Miller
[email protected]
October 11, 2014

Notes:
-- Filler is from same show (SBD -> Master Reel -> Dat -> CD)
-- There are a couple of really short cuts in Truckin'
-- Last Cosmic Charlie till June 4, 1976
-- Thanks to Sandy Troy for lending me his reels
-- Thanks to Matt Smith for transferring the reels
-- Thanks to Joe B. Jones for his help with the pitch correction

Set 1:
s1t01 - Cold Rain And Snow
s1t02 - Me And My Uncle
s1t03 - Smokestack Lightning ->
s1t04 - Truckin'
s1t05 - Dire Wolf
s1t06 - Hard To Handle
xxxxx - Sugar Magnolia (Missing)
xxxxx - Black Peter (Missing)
xxxxx - Mama Tried (Missing)
s1t07 - Around And Around
s1t08 - Cumberland Blues
s1t09 - Casey Jones

Set 2:
s2t01 - That's It For The Other One ->
s2t02 - Cosmic Charlie
s2t03 - China Cat Sunflower ->
s2t04 - I Know You Rider
xxxxx - Uncle John's Band (Missing)

Filler:
s3t01 - Mama Tried
s3t02 - Around And Around
s3t03 - Cumberland Blues
s3t04 - Casey Jones


SHNTOOL OUTPUT:
   length     expanded size    cdr  WAVE problems  fmt   ratio  filename
    6:02.08       63875660 B   ---   --   ---xx   flac  0.6195  gd71-01-21s1t01.flac
    3:12.07       33885308 B   ---   --   ---xx   flac  0.6101  gd71-01-21s1t02.flac
    8:03.52       85323548 B   ---   --   ---xx   flac  0.5912  gd71-01-21s1t03.flac
    9:50.02      104080748 B   ---   --   ---xx   flac  0.6063  gd71-01-21s1t04.flac
    4:06.69       43556732 B   ---   --   ---xx   flac  0.6016  gd71-01-21s1t05.flac
   10:14.69      108471932 B   ---   --   ---xx   flac  0.6134  gd71-01-21s1t06.flac
    3:17.31       34823756 B   ---   --   ---xx   flac  0.6366  gd71-01-21s1t07.flac
    5:05.46       53910236 B   ---   --   ---xx   flac  0.6235  gd71-01-21s1t08.flac
    4:33.24       48213692 B   ---   --   ---xx   flac  0.6286  gd71-01-21s1t09.flac
   25:38.50      271420844 B   ---   --   ---xx   flac  0.6144  gd71-01-21s2t01.flac
    5:17.42       56017628 B   ---   --   ---xx   flac  0.6131  gd71-01-21s2t02.flac
    5:27.65       57835724 B   ---   --   ---xx   flac  0.6191  gd71-01-21s2t03.flac
    5:19.05       56283404 B   ---   --   ---xx   flac  0.6199  gd71-01-21s2t04.flac
    4:04.36       43126316 B   ---   --   ---xx   flac  0.4623  gd71-01-21s3t01.flac
    4:19.52       45809948 B   ---   --   ---xx   flac  0.5211  gd71-01-21s3t02.flac
    5:37.37       59533868 B   ---   --   ---xx   flac  0.4973  gd71-01-21s3t03.flac
    4:41.00       49568444 B   ---   --   ---xx   flac  0.5150  gd71-01-21s3t04.flac
  114:51.70     1215737788 B                            0.5950  (17 files)



Show Checksums
ffp
gd71-01-21s1t01.flac:188f8ea841a9669ed00057b1ac60cbc3
gd71-01-21s1t02.flac:6f25a97426596e25cd7044de02aae00b
gd71-01-21s1t03.flac:b771a6e2077c2d0b1e16218d972e56a1
gd71-01-21s1t04.flac:96faa090d154e07716bd95040d06bd59
gd71-01-21s1t05.flac:ea48a01e5df244481fae457ab8846306
gd71-01-21s1t06.flac:e8c533773845af38c6dafde1272f1d9a
gd71-01-21s1t07.flac:ef5145af2b335bf8f12f5d4a89628d49
gd71-01-21s1t08.flac:2fb3418d4650c59537be0a6c8e5f127c
gd71-01-21s1t09.flac:1beb020987cd1fc7a97958c374973de6
gd71-01-21s2t01.flac:1fb9888b80b1c31c921b48153802f4c6
gd71-01-21s2t02.flac:a1da1826fd4f55b2c7ffabc674782676
gd71-01-21s2t03.flac:6c895a44c9d50e2acee4838b62b7b13b
gd71-01-21s2t04.flac:88659927d4f371b7c3702e11d8976e75
gd71-01-21s3t01.flac:5b45303901fc29f7789de2d39dc7b4ff
gd71-01-21s3t02.flac:ee54dfae1fb7c3638bbd23ac1ace9e09
gd71-01-21s3t03.flac:7f840b1af5a59555165e788c368c3c36
gd71-01-21s3t04.flac:08c33b36de2ad15d53500b0d069e2f48
flac-md5
721688b71919f9465aaa6a03d3bcd0f0 *gd71-01-21s1t01.flac
5a9d89529369c8ed35a22674ccbcaca0 *gd71-01-21s1t02.flac
7a1da7e78cd1d3453ba5f73a37d07e97 *gd71-01-21s1t03.flac
a599bd898d14532f090eed7cf760bc0f *gd71-01-21s1t04.flac
22326ca97851998ff23228ba19fdaf59 *gd71-01-21s1t05.flac
3bdc800dc648ffb658af8fe12505064d *gd71-01-21s1t06.flac
a0cbfad819aff125344c625e0e892ec7 *gd71-01-21s1t07.flac
d38587db93889d2ec8ee801402698785 *gd71-01-21s1t08.flac
62d4097d9d6e3eb99bfe78890713c6cc *gd71-01-21s1t09.flac
ca39c6b2e6e5708e34a19f419fdcd1a4 *gd71-01-21s2t01.flac
a882e7450bc4fea59248a629f936c6f7 *gd71-01-21s2t02.flac
bde2d2886fae9c84c2c76b2cd0828838 *gd71-01-21s2t03.flac
56a480382906cd446d24f2fb6dbcb496 *gd71-01-21s2t04.flac
19ed99ea99d2889d09ca56c6c8537959 *gd71-01-21s3t01.flac
2845616fd1d13a829d9ecd142f444e9d *gd71-01-21s3t02.flac
9209fc3ed091f18abe22b7738db5655f *gd71-01-21s3t03.flac
29ef842cd1d19c8f86e83707043c6143 *gd71-01-21s3t04.flac

Comments
Add Comment
Other Sources (comments)
flac24; Recording... (0)
Date User Comment