Browse Collections Artists Sources   Search Dates

Add Show    List Management    Help


Grateful Dead 10/19/81
Sports Palace, Barcelona, Spain
Comments Add Comment    Source Collectors    Add to Collection    Add to Want List    History
Source # 131522 Other Sources
Entered by Matt Vernon
Checksums flac-md5 , ffp
Disc Counts 0 / 0
Media Size Compressed: 0.99 GB (1058570240 bytes)
Uncompressed: 1.68 GB (1807790592 bytes)
Date Circulated
Date Added
10/12/2014
10/12/2014
Source Summary flac16; Source: Beyer M-160>Sony TC-D5M. Transfer 1st set: MAC > Sony TC-K3es > USBPre2. Transfer 2nd set: 1st Gen > Sony TC-K3es > USBPre2. Recorded center directly in back of soundboard. Recorded and transferred to 24bit/96kHz by Richie Stankiewicz. 16bit: ID-131465 > TLH > R8Brain > Wavelab > CD-Wave > TLH > FLAC 1644 tagged 
  Archive
Source Information - Download Text | Download Zip
GRATEFUL DEAD
Palacio de los Deportes
Barcelona Spain
10-19-1981

16bit/44.1kHz file-set (down-sampled & patched)
Original file-set http://db.etree.org/shn/131465

s1t01 crowd
s1t02 Jack Straw >
s1t03 Franklin's Tower
s1t04 Mama Tried >
s1t05 Mexicali Blues
s1t06 Loser >
s1t07 C.C. Rider
s1t08 Tennessee Jed
s1t09 Passenger
s1t10 Althea >
s1t11 Let it Grow

s2t01 crowd
s2t02 Scarlet Begonias >
s2t03 Fire on the Mountain >
s2t04 Lost Sailor >
s2t05 Saint of Circumstance >
s2t06 Space >
s2t07 Drums >
s2t08 Spanish Jam >
s2t09 The Other One >
s2t10 Stella Blue >
s2t11 Sugar Magnolia
s2t12 crowd
s2t13 Encore: Don't Ease Me In

Source: Beyer M-160>Sony TC-D5M.
Transfer 1st set: MAC > Sony TC-K3es > USBPre2.
Transfer 2nd set: 1st Gen > Sony TC-K3es > USBPre2.
Recorded center directly in back of soundboard.
Recorded and transferred to 24bit/96kHz by Richie Stankiewicz.
16bit: ID-131465 > TLH > R8Brain > Wavelab > CD-Wave > TLH > FLAC 1644 tagged.

Note: This version contains patches from ID-119976 that make the show complete;
Passenger entire track, Althea 6:04 > 7:40, Space 5:24 > 6:14, and Space 7:12 >
Drums 4:19. ID-119976 material was remixed to eliminate a phase issue, fix as many
of the digi-pops as possible, and adjust some EQ. On Richie's source, left channel
gain was increased, a few small edits, and two cross-fades added. Thanks Richie!

    length     expanded size    cdr  WAVE problems  fmt   ratio  filename
     1:17.61       13726316 B   ---   --   ---xx   flac  0.5419  gd1981-10-19s1t01.flac
     5:31.29       58456652 B   ---   --   ---xx   flac  0.6091  gd1981-10-19s1t02.flac
    14:25.35      152668364 B   ---   --   ---xx   flac  0.6128  gd1981-10-19s1t03.flac
     2:27.73       26102540 B   ---   --   ---xx   flac  0.6178  gd1981-10-19s1t04.flac
     5:02.19       53317532 B   ---   --   ---xx   flac  0.6249  gd1981-10-19s1t05.flac
     7:09.11       75701516 B   ---   --   ---xx   flac  0.6000  gd1981-10-19s1t06.flac
     8:37.65       91351724 B   ---   --   ---xx   flac  0.5826  gd1981-10-19s1t07.flac
     8:50.63       93640220 B   ---   --   ---xx   flac  0.5950  gd1981-10-19s1t08.flac
     5:15.74       55740092 B   ---   --   ---xx   flac  0.5279  gd1981-10-19s1t09.flac
     8:10.60       86577164 B   ---   --   ---xx   flac  0.5439  gd1981-10-19s1t10.flac
    14:32.28      153886700 B   ---   --   ---xx   flac  0.5727  gd1981-10-19s1t11.flac
     1:05.68       11625980 B   ---   --   ---xx   flac  0.5327  gd1981-10-19s2t01.flac
    14:07.58      149547260 B   ---   --   ---xx   flac  0.6135  gd1981-10-19s2t02.flac
     9:48.21      103772636 B   ---   --   ---xx   flac  0.6115  gd1981-10-19s2t03.flac
     7:11.56       76160156 B   ---   --   ---xx   flac  0.5694  gd1981-10-19s2t04.flac
     7:37.47       80725388 B   ---   --   ---xx   flac  0.6251  gd1981-10-19s2t05.flac
     7:15.33       76811660 B   ---   --   ---xx   flac  0.5316  gd1981-10-19s2t06.flac
     4:36.45       48792284 B   ---   --   ---xx   flac  0.5261  gd1981-10-19s2t07.flac
     5:02.14       53305772 B   ---   --   ---xx   flac  0.5398  gd1981-10-19s2t08.flac
     8:02.14       85057772 B   ---   --   ---xx   flac  0.5792  gd1981-10-19s2t09.flac
     9:39.45      102241484 B   ---   --   ---xx   flac  0.5440  gd1981-10-19s2t10.flac
    11:01.05      116612204 B   ---   --   ---xx   flac  0.6252  gd1981-10-19s2t11.flac
     0:41.15        7267724 B   ---   --   ---xx   flac  0.5034  gd1981-10-19s2t12.flac
     3:16.54       34701452 B   ---   --   ---xx   flac  0.6193  gd1981-10-19s2t13.flac
   170:48.18     1807790592 B                            0.5855  (24 files)

No errors occured.



Show Checksums
flac-md5
b54fb1411f1a71720acd7867ea6ed416 *gd1981-10-19s1t01.flac
e50da8655ee1f56711d15b77e8ae78d9 *gd1981-10-19s1t02.flac
bc8f917295e5c753eda5ab2f81e0a1c3 *gd1981-10-19s1t03.flac
a1188cefdf954bf35231c279222ca0d9 *gd1981-10-19s1t04.flac
3f3eaae799da8328e5c3aa8be88a53a2 *gd1981-10-19s1t05.flac
976ef252e9bb5be8e32766bc03c7b0af *gd1981-10-19s1t06.flac
3bb169219a174dd0639bf9acb14b697a *gd1981-10-19s1t07.flac
75057e0e26fc627a919cb3a27316d654 *gd1981-10-19s1t08.flac
5c687f682c9f7055c4078c640f9d0787 *gd1981-10-19s1t09.flac
2b3b9a37bcf4d5018b561cbb566f3a95 *gd1981-10-19s1t10.flac
34e847118ef5faf5edf0c8ef198a67f2 *gd1981-10-19s1t11.flac
3ea886f12e9a53c00e7f43984bf2d3c1 *gd1981-10-19s2t01.flac
fe810c36659cf3822b8ce675bb3704b3 *gd1981-10-19s2t02.flac
f16ea96b362c72ed8660bc7124d924f3 *gd1981-10-19s2t03.flac
8d37f7d5d84853e80c08aa82b7fe8fda *gd1981-10-19s2t04.flac
3dacd89fd2120b2b335da36c993ceb29 *gd1981-10-19s2t05.flac
25ce805cbe2c256cfd5964703358ffaa *gd1981-10-19s2t06.flac
a6f79ecb1e3ffa04b31cc769a0588b32 *gd1981-10-19s2t07.flac
2e968daa7bf10a8a2083f29c8dc6a04f *gd1981-10-19s2t08.flac
3bf82dcbe2ba8866f9d53d811f1ee412 *gd1981-10-19s2t09.flac
6fe53f48c8ed2584c077804d31031bea *gd1981-10-19s2t10.flac
c8e21dc19c9daf6909470c47ae2173aa *gd1981-10-19s2t11.flac
0bd615ce920352222e3ca0a17a4321c4 *gd1981-10-19s2t12.flac
63a897c6a71335df2a8826f4dcf4bfd2 *gd1981-10-19s2t13.flac
ffp
gd1981-10-19s1t01.flac:6bb57c7a71d7fbb3461b9fd9111e84d7
gd1981-10-19s1t02.flac:ef10b897ae31cfb03318495f0d521829
gd1981-10-19s1t03.flac:6ad021f9b552ba85f05968adf3974a39
gd1981-10-19s1t04.flac:58bf1aa24a15143c841be778d6ca2621
gd1981-10-19s1t05.flac:805a9d0cda8778503012a13062913aa8
gd1981-10-19s1t06.flac:bc6d8ef794a2d4499967adfff6200b80
gd1981-10-19s1t07.flac:ac5a249371412e0f4d5c97204157486c
gd1981-10-19s1t08.flac:cf19b9a0db57569dd3f1d4e85ce4b839
gd1981-10-19s1t09.flac:60a925298742f7a680b89e1517be0fe1
gd1981-10-19s1t10.flac:a0d480219fd8a58323087296d00ac043
gd1981-10-19s1t11.flac:a04107b3feb782c669a1c25a5901717a
gd1981-10-19s2t01.flac:ec31ab1803c8f9bebdd9a2c53d6b1aaa
gd1981-10-19s2t02.flac:3f9300253024a584a6544d5094909c64
gd1981-10-19s2t03.flac:30c7d25d90146619ba225650f573a25a
gd1981-10-19s2t04.flac:1e687f0efb2ec001ac53df4d5ff8f8a0
gd1981-10-19s2t05.flac:3edc2be89ec8889ff0dea207df2a0199
gd1981-10-19s2t06.flac:8cbaf39f21cde401a31ce0a114e0b24b
gd1981-10-19s2t07.flac:de8313b93146cc49fb374c3b62615939
gd1981-10-19s2t08.flac:7d75f5089d8b466ff3224064e500fbfc
gd1981-10-19s2t09.flac:06b9c65d023f59a8984c0aae51371522
gd1981-10-19s2t10.flac:a7597bc3d5ad4d35084cb7e7fc98d80f
gd1981-10-19s2t11.flac:61c7e355b770954964e254337529c712
gd1981-10-19s2t12.flac:b4ae84205e75911d1d675c522b5f2a98
gd1981-10-19s2t13.flac:60656150005b8825e4ceb29b898862ef

Comments
Add Comment
Other Sources (comments)
SBD: CM > CASS > DAT > Pro... (1) flac16; Recording... (0) flac16: recording:... (1) flac24; Beyer... (0) flac16; 2 source... (1)
Date User Comment