Browse Collections Artists Sources   Search Dates

Add Show    List Management    Help


Grateful Dead 03/10/81
Madison Square Garden, New York, NY
Comments Add Comment    Source Collectors    Add to Collection    Add to Want List    History
Source # 131563 Other Sources
Entered by Matt Vernon
Checksums orig-ffp , orig-md5 , ffp , flac-md5
Disc Counts 0 / 0
Media Size Compressed: 945.18 MB (991095933 bytes)
Uncompressed: 1.74 GB (1866470684 bytes)
Date Circulated
Date Added
10/22/2014
10/22/2014
Source Summary flac16; Recording by Jim Wise: Master Audience Cassette; 2 Sennheiser 421s> Sony D-5; Transfer and FLAC encoding by David Minches: September 2014; Dolby B decoded Master played back on Nakamichi Dragon > Korg MR-1000(DSF [1-bit 5.6448 MHz Stereo]) Korg AudioGate > WAV [24/96] > Adobe Audition 3.0> FLAC encoding 
  Archive
Source Information - Download Text | Download Zip
Grateful Dead
March 10, 1981
Madison Square Garden
New York , NY

Recording by Jim Wise:
Master Audience Cassette; 2 Sennheiser 421s> Sony D-5

Transfer and FLAC encoding by David Minches: September 2014
Dolby B decoded Master played back on Nakamichi Dragon >
Korg MR-1000(DSF [1-bit 5.6448 MHz Stereo]) Korg AudioGate > WAV [24/96] >
Adobe Audition 3.0> FLAC encoding

16/44 version
_____________________________________________________________________________________

--Set 1--
101-d1t01  tuning
102-d1t02  Mississippi Half-Step >
103-d1t03  Franklin's Tower
104-d1t04  Me and My Uncle
105-d1t05  It Must Have Been the Roses
106-d1t06  Little Red Rooster
107-d1t07  Don't East Me In
108-d1t08  Lazy Lightnin'>
109-d1t09  Supplication
110-d1t10  Brown-Eyed Women
111-d1t11  Looks Like Rain >
112-d1t12  Deal

--Set 2--
201-d2t01  tuning
202-d2t02  Scarlet Begonias >
203-d2t03  Fire on the Mountain >
204-d2t04  Lost Sailor >
205-d2t05  Saint of Circumstance>
206-d2t06  Drums >
207-d2t01  Space >
208-d2t02  The Wheel >
209-d2t03  China Doll >
210-d2t04  Truckin'>
211-d2t05  Sugar Magnolia

--Encore--
212-d2t06  (I Can't Get No) Satisfaction >
213-d2t07  Brokedown Palace
_____________________________________________________________________________________

    length     expanded size    cdr  WAVE problems  fmt   ratio  filename
     1:58.07       20831708 B   ---   --   ---xx   flac  0.4778  d01t01 - Tuning.flac
    11:23.36      120565916 B   ---   --   ---xx   flac  0.5361  d01t02 - Mississippi Half-Step.flac
    10:48.17      114347228 B   ---   --   ---xx   flac  0.5551  d01t03 - Franklin's Tower.flac
     3:51.69       40910732 B   ---   --   ---xx   flac  0.5315  d01t04 - Me and My Uncle.flac
     6:12.53       65745500 B   ---   --   ---xx   flac  0.5042  d01t05 - It Must Have Been the Roses.flac
     6:48.35       72053564 B   ---   --   ---xx   flac  0.5185  d01t06 - Little Red Rooster.flac
     4:09.61       44067116 B   ---   --   ---xx   flac  0.5370  d01t07 - Don't East Me In.flac
     3:18.55       35056604 B   ---   --   ---xx   flac  0.5471  d01t08 - Lazy Lightnin'.flac
     6:30.36       68880716 B   ---   --   ---xx   flac  0.5470  d01t09 - Supplication.flac
     5:17.46       56027036 B   ---   --   ---xx   flac  0.5411  d01t10 - Brown-Eyed Women.flac
     9:05.29       96206252 B   ---   --   ---xx   flac  0.5240  d01t11 - Looks Like Rain.flac
     7:10.51       75971996 B   ---   --   ---xx   flac  0.5586  d01t12 - Deal.flac
     2:42.19       28621532 B   ---   --   ---xx   flac  0.4719  d02t01 - Tuning.flac
    10:59.45      116353484 B   ---   --   ---xx   flac  0.5457  d02t02 - Scarlet Begonias.flac
    15:08.48      160284140 B   ---   --   ---xx   flac  0.5436  d02t03 - Fire On The Mountain.flac
     5:59.59       63466412 B   ---   --   ---xx   flac  0.5087  d02t04 - Lost Sailor.flac
     9:34.59      101392412 B   ---   --   ---xx   flac  0.5486  d02t05 - Saint of Circumstance.flac
     9:43.36      102925916 B   ---   --   ---xx   flac  0.5066  d02t06 - Drums.flac
     2:26.06       25768556 B   ---   --   ---xx   flac  0.4354  d03t01 - Space.flac
     5:51.73       62088140 B   ---   --   ---xx   flac  0.5217  d03t02 - The Wheel.flac
     6:56.56       73514156 B   ---   --   ---xx   flac  0.4920  d03t03 - China Doll.flac
     8:26.35       89340764 B   ---   --   ---xx   flac  0.5527  d03t04 - Truckin'.flac
     9:47.21      103596236 B   ---   --   ---xx   flac  0.5535  d03t05 - Sugar Magnolia.flac
     6:12.51       65740796 B   ---   --   ---xx   flac  0.5452  d03t06 - Satisfaction.flac
     5:55.39       62713772 B   ---   --   ---xx   flac  0.4867  d03t07 - Brokedown Palace.flac
   176:20.67     1866470684 B                            0.5310  (25 files)





Show Checksums
orig-ffp
d01t01 - Tuning.flac:99a09e0f3183a69a86ece442a23d873e
d01t02 - Mississippi Half-Step.flac:333d9150f535a0f9844c15a41b3a98ef
d01t03 - Franklin's Tower.flac:919e9ae51896c6d6092af77476d4c541
d01t04 - Me and My Uncle.flac:0eb05b2bc0e3a33ec990dcd09e5e4dd5
d01t05 - It Must Have Been the Roses.flac:ddd074cbe444ce6754a76c177c23afa0
d01t06 - Little Red Rooster.flac:7a1d5035380121070a4ef13db6d4ebc0
d01t07 - Don't East Me In.flac:d44e91830a105047c1fbb4ac646233a9
d01t08 - Lazy Lightnin'.flac:befb8e75f60d212fc7c3e7d470b8796e
d01t09 - Supplication.flac:f733bd52b6c863da232e164375e02283
d01t10 - Brown-Eyed Women.flac:01e08bb8996916d1004469a9314618bf
d01t11 - Looks Like Rain.flac:dfe80db2d5d3b98acc142ec228fe5470
d01t12 - Deal.flac:a00322e9f7a4db44fb84feb834303a46
d02t01 - Tuning.flac:cf8cb5245a379bb060928c534c24211c
d02t02 - Scarlet Begonias.flac:343af6c8c087c1b8fec231e7ca95e10b
d02t03 - Fire On The Mountain.flac:091b8be889e0dea205922cab2fc118da
d02t04 - Lost Sailor.flac:cf52c0fe07dbfff3512d369be97b2fb0
d02t05 - Saint of Circumstance.flac:123f78ffa1ab22eb270aba09ba4b3be1
d02t06 - Drums.flac:4375175346baa34c678bf482676988ac
d03t01 - Space.flac:75d879b2cd44de52cf629590a3fd1eed
d03t02 - The Wheel.flac:6ee9402b2e82c169a8a3cdb56ffdc952
d03t03 - China Doll.flac:dcce408427725a27f0e11f17e6def579
d03t04 - Truckin'.flac:e76a37483835534c1a697b4e1eed839b
d03t05 - Sugar Magnolia.flac:a37bca1b8efd69c28633f5dd5d3810ff
d03t06 - Satisfaction.flac:e02eaacb0d64ab5324601655211eb024
d03t07 - Brokedown Palace.flac:967c895f05b3741be4aba47c3580b654
orig-md5
7df507a00c2c1ed451847427bfb86c68 *d01t01 - Tuning.flac
5ffa74c893f03ee79fc3d23bb1530ab7 *d01t02 - Mississippi Half-Step.flac
44b37dab9a3ec76b89a2c79d8d264adf *d01t03 - Franklin's Tower.flac
1322761218a839593aed70b35ead50c4 *d01t04 - Me and My Uncle.flac
6e4d69c32a1b3491fa8f5d7231e5ffa3 *d01t05 - It Must Have Been the Roses.flac
e6709a510f8388fddd70848bf51eab27 *d01t06 - Little Red Rooster.flac
63d8e3919f3770f10f70a0db8bd49d3c *d01t07 - Don't East Me In.flac
1a1c57b6d792256890b2428037765da9 *d01t08 - Lazy Lightnin'.flac
b7997b07bfde374e98cb7b9e84159034 *d01t09 - Supplication.flac
cd219d3f0cc537e48bf180d834ada6d0 *d01t10 - Brown-Eyed Women.flac
ea89cb5730fd75f0dd0b9e628edeb3ee *d01t11 - Looks Like Rain.flac
c15bb212efa7870793e2d3a41e2dd284 *d01t12 - Deal.flac
73b37a1e4f61ec82ad682e10810b4e92 *d02t01 - Tuning.flac
393302e5ba56350a70f2837036cbc086 *d02t02 - Scarlet Begonias.flac
bff5f5ee7aa5a6c59623aafe1fa11964 *d02t03 - Fire On The Mountain.flac
796d0b6eb183fe9bcda54e53a8de2679 *d02t04 - Lost Sailor.flac
c71bfad686d8bf76fc51081a534849b2 *d02t05 - Saint of Circumstance.flac
5e2ab636bd47325f0a5a637ee96ac8a3 *d02t06 - Drums.flac
fd58c1a8a379d5c21a66f4cfb6b3ff86 *d03t01 - Space.flac
6ffa0d43940ef5a09b248a8868efd1ad *d03t02 - The Wheel.flac
a0ddb95084265530efe3f2a3251c43a5 *d03t03 - China Doll.flac
33a952a4ff2486c1313cbe0dcfc8a252 *d03t04 - Truckin'.flac
f2d3b44a5507291a6319c85f99ae9056 *d03t05 - Sugar Magnolia.flac
ed7722a9bc4148471856c47a8aed8666 *d03t06 - Satisfaction.flac
39a65836f9ed21a04351da2f1ecc9d2a *d03t07 - Brokedown Palace.flac
ffp
d01t01.flac:99a09e0f3183a69a86ece442a23d873e
d01t02.flac:333d9150f535a0f9844c15a41b3a98ef
d01t03.flac:919e9ae51896c6d6092af77476d4c541
d01t04.flac:0eb05b2bc0e3a33ec990dcd09e5e4dd5
d01t05.flac:ddd074cbe444ce6754a76c177c23afa0
d01t06.flac:7a1d5035380121070a4ef13db6d4ebc0
d01t07.flac:d44e91830a105047c1fbb4ac646233a9
d01t08.flac:befb8e75f60d212fc7c3e7d470b8796e
d01t09.flac:f733bd52b6c863da232e164375e02283
d01t10.flac:01e08bb8996916d1004469a9314618bf
d01t11.flac:dfe80db2d5d3b98acc142ec228fe5470
d01t12.flac:a00322e9f7a4db44fb84feb834303a46
d02t01.flac:cf8cb5245a379bb060928c534c24211c
d02t02.flac:343af6c8c087c1b8fec231e7ca95e10b
d02t03.flac:091b8be889e0dea205922cab2fc118da
d02t04.flac:cf52c0fe07dbfff3512d369be97b2fb0
d02t05.flac:123f78ffa1ab22eb270aba09ba4b3be1
d02t06.flac:4375175346baa34c678bf482676988ac
d03t01.flac:75d879b2cd44de52cf629590a3fd1eed
d03t02.flac:6ee9402b2e82c169a8a3cdb56ffdc952
d03t03.flac:dcce408427725a27f0e11f17e6def579
d03t04.flac:e76a37483835534c1a697b4e1eed839b
d03t05.flac:a37bca1b8efd69c28633f5dd5d3810ff
d03t06.flac:e02eaacb0d64ab5324601655211eb024
d03t07.flac:967c895f05b3741be4aba47c3580b654
flac-md5
7df507a00c2c1ed451847427bfb86c68 *d01t01.flac
5ffa74c893f03ee79fc3d23bb1530ab7 *d01t02.flac
44b37dab9a3ec76b89a2c79d8d264adf *d01t03.flac
1322761218a839593aed70b35ead50c4 *d01t04.flac
6e4d69c32a1b3491fa8f5d7231e5ffa3 *d01t05.flac
e6709a510f8388fddd70848bf51eab27 *d01t06.flac
63d8e3919f3770f10f70a0db8bd49d3c *d01t07.flac
1a1c57b6d792256890b2428037765da9 *d01t08.flac
b7997b07bfde374e98cb7b9e84159034 *d01t09.flac
cd219d3f0cc537e48bf180d834ada6d0 *d01t10.flac
ea89cb5730fd75f0dd0b9e628edeb3ee *d01t11.flac
c15bb212efa7870793e2d3a41e2dd284 *d01t12.flac
73b37a1e4f61ec82ad682e10810b4e92 *d02t01.flac
393302e5ba56350a70f2837036cbc086 *d02t02.flac
bff5f5ee7aa5a6c59623aafe1fa11964 *d02t03.flac
796d0b6eb183fe9bcda54e53a8de2679 *d02t04.flac
c71bfad686d8bf76fc51081a534849b2 *d02t05.flac
5e2ab636bd47325f0a5a637ee96ac8a3 *d02t06.flac
fd58c1a8a379d5c21a66f4cfb6b3ff86 *d03t01.flac
6ffa0d43940ef5a09b248a8868efd1ad *d03t02.flac
a0ddb95084265530efe3f2a3251c43a5 *d03t03.flac
33a952a4ff2486c1313cbe0dcfc8a252 *d03t04.flac
f2d3b44a5507291a6319c85f99ae9056 *d03t05.flac
ed7722a9bc4148471856c47a8aed8666 *d03t06.flac
39a65836f9ed21a04351da2f1ecc9d2a *d03t07.flac

Comments
Add Comment
Other Sources (comments)
Recording by Barry... (0) flac16; Recording by... (2) flac24/96; Recording... (0) flac16; Set 2 only,... (1) flac16; Recording... (0) flac24; Recording... (0) flac16; Recording... (0) flac24; Recording by... (0) flac16; Matrix by... (0)
Date User Comment