Browse Collections Artists Sources   Search Dates

Add Show    List Management    Help


Grateful Dead 03/10/81
Madison Square Garden, New York, NY
Comments Add Comment    Source Collectors    Add to Collection    Add to Want List    History
Source # 131564 Other Sources
Entered by Matt Vernon
Checksums orig-ffp , orig-md5 , ffp , flac-md5
Disc Counts 0 / 0
Media Size Compressed: 3.54 GB (3797540152 bytes)
Uncompressed: 5.68 GB (6094591802 bytes)
Date Circulated
Date Added
10/22/2014
10/22/2014
Source Summary flac24; Recording by Jim Wise: Master Audience Cassette; 2 Sennheiser 421s> Sony D-5; Transfer and FLAC encoding by David Minches: September 2014; Dolby B decoded Master played back on Nakamichi Dragon > Korg MR-1000(DSF [1-bit 5.6448 MHz Stereo]) Korg AudioGate > WAV [24/96] > Adobe Audition 3.0> FLAC encoding 
  Archive
Source Information - Download Text | Download Zip
Grateful Dead
March 10, 1981
Madison Square Garden
New York, NY

Recording by Jim Wise:
Master Audience Cassette; 2 Sennheiser 421s> Sony D-5

Transfer and FLAC encoding by David Minches: September 2014
Dolby B decoded Master played back on Nakamichi Dragon >
Korg MR-1000(DSF [1-bit 5.6448 MHz Stereo]) Korg AudioGate > WAV [24/96] >
Adobe Audition 3.0> FLAC encoding

24/96 version
____________________________________________________________________________________________

--Set 1--
s1t01  tuning
s1t02  Mississippi Half-Step >
s1t03  Franklin's Tower
s1t04  Me and My Uncle
s1t05  It Must Have Been the Roses
s1t06  Little Red Rooster
s1t07  Don't East Me In
s1t08  Lazy Lightnin'>
s1t09  Supplication
s1t10  Brown-Eyed Women
s1t11  Looks Like Rain >
s1t12  Deal

-Set 2--
s2t01  tuning
s2t02  Scarlet Begonias >
s2t03  Fire on the Mountain >
s2t04  Lost Sailor >
s2t05  Saint of Circumstance >
s2t06  Drums >
s2t07  Space >
s2t08  The Wheel >
s2t09  China Doll >
s2t10  Truckin'>
s2t11  Sugar Magnolia

--Encore--
s2t12  (I Can't Get No) Satisfaction >
s2t13  Brokedown Palace
____________________________________________________________________________________________

    length     expanded size    cdr  WAVE problems  fmt   ratio  filename
     1:58.094      68022350 B   cxx   --   ---xx   flac  0.6045  s01t01 - Tuning.flac
    11:23.476     393682250 B   cxx   --   ---xx   flac  0.6257  s01t02 - Mississippi Half-Step.flac
    10:48.234     373382672 B   cxx   --   ---xx   flac  0.6313  s01t03 - Franklin's Tower.flac
     3:51.922     133587218 B   cxx   --   ---xx   flac  0.6228  s01t04 - Me and My Uncle.flac
     6:12.704     214677620 B   cxx   --   ---xx   flac  0.6135  s01t05 - It Must Have Been the Roses.flac
     6:48.470     235278584 B   cxx   --   ---xx   flac  0.6186  s01t06 - Little Red Rooster.flac
     4:09.808     143889602 B   cxx   --   ---xx   flac  0.6255  s01t07 - Don't East Me In.flac
     3:18.738     114473360 B   cxx   --   ---xx   flac  0.6285  s01t08 - Lazy Lightnin'.flac
     6:30.480     224916446 B   cxx   --   ---xx   flac  0.6285  s01t09 - Supplication.flac
     5:17.618     182948114 B   cxx   --   ---xx   flac  0.6262  s01t10 - Brown-Eyed Women.flac
     9:05.382     314139974 B   cxx   --   ---xx   flac  0.6206  s01t11 - Looks Like Rain.flac
     7:10.686     248074922 B   cxx   --   ---xx   flac  0.6329  s01t12 - Deal.flac
     2:42.244      93452684 B   cxx   --   ---xx   flac  0.6024  s02t01 - Tuning.flac
    10:59.600     379929866 B   cxx   --   ---xx   flac  0.6282  s02t02 - Scarlet Begonias.flac
    15:08.638     523375490 B   cxx   --   ---xx   flac  0.6280  s02t03 - Fire On The Mountain.flac
     5:59.777     207231782 B   cxx   --   ---xx   flac  0.6162  s02t04 - Lost Sailor.flac
     9:34.795     331082168 B   cxx   --   ---xx   flac  0.6293  s02t05 - Saint of Circumstance.flac
     9:43.480     336084692 B   cxx   --   ---xx   flac  0.6148  s02t06 - Drums.flac
     2:26.083      84143912 B   cxx   --   ---xx   flac  0.5920  s02t07 - Space.flac
     5:51.971     202735268 B   cxx   --   ---xx   flac  0.6202  s02t08 - The Wheel.flac
     6:56.730     240036452 B   cxx   --   ---xx   flac  0.6101  s02t09 - China Doll.flac
     8:26.465     291723632 B   cxx   --   ---xx   flac  0.6310  s02t10 - Truckin'.flac
     9:47.280     338273054 B   cxx   --   ---xx   flac  0.6311  s02t11 - Sugar Magnolia.flac
     6:12.686     214666988 B   cxx   --   ---xx   flac  0.6260  s02t12 - Satisfaction.flac
     5:55.525     204782702 B   cxx   --   ---xx   flac  0.6056  s02t13 - Brokedown Palace.flac
   176:20.887    6094591802 B                            0.6231  (25 files)





Show Checksums
orig-ffp
s01t01 - Tuning.flac:7fea4ba78f071ea05933407b4b520bdf
s01t02 - Mississippi Half-Step.flac:c7a3bcc0d59fa8be8f896347774ee960
s01t03 - Franklin's Tower.flac:78d0ac23204418036105f2be667711f4
s01t04 - Me and My Uncle.flac:c43e94be961adae5d2bbc142d394605e
s01t05 - It Must Have Been the Roses.flac:a061a058a3a52c51ea061706426f841e
s01t06 - Little Red Rooster.flac:4e80105119fefd92b62e964c3285d05e
s01t07 - Don't East Me In.flac:510c6587ae1556899809161da4b7d420
s01t08 - Lazy Lightnin'.flac:ed3af9a0c8ed7ef97eff6c9a1ed46be6
s01t09 - Supplication.flac:d9eba2e8516f9f8110f8e14c80c383e9
s01t10 - Brown-Eyed Women.flac:61f13034fffd1ea394f95f5ad6a2da22
s01t11 - Looks Like Rain.flac:c128f085c60496d8439a0e215d4836dd
s01t12 - Deal.flac:1e9786c18271e935b0aaf76d325e34e4
s02t01 - Tuning.flac:522d7920d33ebe5537c6a47dc8444103
s02t02 - Scarlet Begonias.flac:6216db7acfd4793ba10fae40149b74cf
s02t03 - Fire On The Mountain.flac:3a35959e92e6027ad9d51a62ad621f50
s02t04 - Lost Sailor.flac:6971172f1dc4d3a96ea784c1595e2a70
s02t05 - Saint of Circumstance.flac:9350f6359b339e4141a028cfb7ca2900
s02t06 - Drums.flac:a871ddb438da1e00bd9b9ef2e5e57857
s02t07 - Space.flac:51dbf58338b06f04b3c5bdb74f8beb13
s02t08 - The Wheel.flac:45cd441cde905073332d25d0edd75b13
s02t09 - China Doll.flac:c9ccb28b8bd2344ad90fb6eaf5e658dd
s02t10 - Truckin'.flac:96f248de41f1f8df2040a65153e2ea7a
s02t11 - Sugar Magnolia.flac:d32ca975f5f7f2097aaa0267ed590409
s02t12 - Satisfaction.flac:2f51e53e2cd434ca38544e5834b207cc
s02t13 - Brokedown Palace.flac:20d059ddcf97cd581d51b8991be1a40c
orig-md5
7a5b93f2142152e33a3215a40fc180fe *s01t01 - Tuning.flac
5285fcf1f0da4652c6bfb628aea020be *s01t02 - Mississippi Half-Step.flac
0b0a795cc5d95f0f79910411bb4ba64c *s01t03 - Franklin's Tower.flac
ceb9d75a0046eb340b54eebd9d8e861b *s01t04 - Me and My Uncle.flac
5ef1d88481d7a6a37ad20f6959a56d60 *s01t05 - It Must Have Been the Roses.flac
0dc7d10345c65558a720db68dfb8f03c *s01t06 - Little Red Rooster.flac
98591dbd9b98773c29a6027bf026dc71 *s01t07 - Don't East Me In.flac
449dfe7626e903c04f805c5c78c5671f *s01t08 - Lazy Lightnin'.flac
570514efcef15839d286abf55097cffc *s01t09 - Supplication.flac
57e4fe9f7986166f0bf5b6cf4c43b03f *s01t10 - Brown-Eyed Women.flac
db6491f4f48e875c6405d926d1e6a6cc *s01t11 - Looks Like Rain.flac
50c18cddc2b84611a4af74548f04dfd3 *s01t12 - Deal.flac
2820d0a289218cf4a67a9b4dce23f734 *s02t01 - Tuning.flac
4f8b2f232f8f575261acc6ba892d68fc *s02t02 - Scarlet Begonias.flac
5631fde58b7c855c6d1499e6edf3d6e7 *s02t03 - Fire On The Mountain.flac
eb263922b5919bec2f3048bc89fd4613 *s02t04 - Lost Sailor.flac
70fc47985a48fcc3d919c893815f546f *s02t05 - Saint of Circumstance.flac
9a3fd05385e86c658249825e5d885838 *s02t06 - Drums.flac
5c22a888245829538e1317b52c0de63e *s02t07 - Space.flac
9e432b74084497b764ed63d293d52da2 *s02t08 - The Wheel.flac
f7ac802e361b7227c055933dd73acb6a *s02t09 - China Doll.flac
7ba8a6cbf6b6eb81abc6d4972ab16f51 *s02t10 - Truckin'.flac
c4efbcd6c08977b3a443f889e350e014 *s02t11 - Sugar Magnolia.flac
9f1199ec763ef575284e824b12ebdf03 *s02t12 - Satisfaction.flac
4d545aa5566a899075d715e04323dd7b *s02t13 - Brokedown Palace.flac
ffp
s01t01.flac:7fea4ba78f071ea05933407b4b520bdf
s01t02.flac:c7a3bcc0d59fa8be8f896347774ee960
s01t03.flac:78d0ac23204418036105f2be667711f4
s01t04.flac:c43e94be961adae5d2bbc142d394605e
s01t05.flac:a061a058a3a52c51ea061706426f841e
s01t06.flac:4e80105119fefd92b62e964c3285d05e
s01t07.flac:510c6587ae1556899809161da4b7d420
s01t08.flac:ed3af9a0c8ed7ef97eff6c9a1ed46be6
s01t09.flac:d9eba2e8516f9f8110f8e14c80c383e9
s01t10.flac:61f13034fffd1ea394f95f5ad6a2da22
s01t11.flac:c128f085c60496d8439a0e215d4836dd
s01t12.flac:1e9786c18271e935b0aaf76d325e34e4
s02t01.flac:522d7920d33ebe5537c6a47dc8444103
s02t02.flac:6216db7acfd4793ba10fae40149b74cf
s02t03.flac:3a35959e92e6027ad9d51a62ad621f50
s02t04.flac:6971172f1dc4d3a96ea784c1595e2a70
s02t05.flac:9350f6359b339e4141a028cfb7ca2900
s02t06.flac:a871ddb438da1e00bd9b9ef2e5e57857
s02t07.flac:51dbf58338b06f04b3c5bdb74f8beb13
s02t08.flac:45cd441cde905073332d25d0edd75b13
s02t09.flac:c9ccb28b8bd2344ad90fb6eaf5e658dd
s02t10.flac:96f248de41f1f8df2040a65153e2ea7a
s02t11.flac:d32ca975f5f7f2097aaa0267ed590409
s02t12.flac:2f51e53e2cd434ca38544e5834b207cc
s02t13.flac:20d059ddcf97cd581d51b8991be1a40c
flac-md5
7a5b93f2142152e33a3215a40fc180fe *s01t01.flac
5285fcf1f0da4652c6bfb628aea020be *s01t02.flac
0b0a795cc5d95f0f79910411bb4ba64c *s01t03.flac
ceb9d75a0046eb340b54eebd9d8e861b *s01t04.flac
5ef1d88481d7a6a37ad20f6959a56d60 *s01t05.flac
0dc7d10345c65558a720db68dfb8f03c *s01t06.flac
98591dbd9b98773c29a6027bf026dc71 *s01t07.flac
449dfe7626e903c04f805c5c78c5671f *s01t08.flac
570514efcef15839d286abf55097cffc *s01t09.flac
57e4fe9f7986166f0bf5b6cf4c43b03f *s01t10.flac
db6491f4f48e875c6405d926d1e6a6cc *s01t11.flac
50c18cddc2b84611a4af74548f04dfd3 *s01t12.flac
2820d0a289218cf4a67a9b4dce23f734 *s02t01.flac
4f8b2f232f8f575261acc6ba892d68fc *s02t02.flac
5631fde58b7c855c6d1499e6edf3d6e7 *s02t03.flac
eb263922b5919bec2f3048bc89fd4613 *s02t04.flac
70fc47985a48fcc3d919c893815f546f *s02t05.flac
9a3fd05385e86c658249825e5d885838 *s02t06.flac
5c22a888245829538e1317b52c0de63e *s02t07.flac
9e432b74084497b764ed63d293d52da2 *s02t08.flac
f7ac802e361b7227c055933dd73acb6a *s02t09.flac
7ba8a6cbf6b6eb81abc6d4972ab16f51 *s02t10.flac
c4efbcd6c08977b3a443f889e350e014 *s02t11.flac
9f1199ec763ef575284e824b12ebdf03 *s02t12.flac
4d545aa5566a899075d715e04323dd7b *s02t13.flac

Comments
Add Comment
Other Sources (comments)
Recording by Barry... (0) flac16; Recording by... (2) flac24/96; Recording... (0) flac16; Set 2 only,... (1) flac16; Recording... (0) flac24; Recording... (0) flac16; Recording... (0) flac16; Recording by... (0) flac16; Matrix by... (0)
Date User Comment