Browse Collections Artists Sources   Search Dates

Add Show    List Management    Help


Grateful Dead 03/10/81
Madison Square Garden, New York, NY
Comments Add Comment    Source Collectors    Add to Collection    Add to Want List    History
Source # 131701 Other Sources
Entered by Matt Vernon
Checksums ffp , flac-md5
Disc Counts 0 / 0
Media Size Compressed: 1.09 GB (1169118540 bytes)
Uncompressed: 1.77 GB (1896529156 bytes)
Date Circulated
Date Added
11/08/2014
11/08/2014
Source Summary flac16; Matrix by Hunter Seamons using Final Cut Pro (FLAC > AIFF > Final Cut w/EQ > AIFF CD tracking via Audacity > FLAC16 via xACT w/meta-tagging) 
  Archive
Source Information - Download Text | Download Zip
Grateful Dead
Madison Square Garden
New York, NY
March 10, 1981

Jerry Garcia - Lead Guitar, Vocals
Mickey Hart - Drums
Bill Kreutzmann - Drums
Phil Lesh - Electric Bass, Vocals
Brent Mydland - Keyboards, Vocals
Bob Weir - Rhythm Guitar, Vocals


*Matrix*

-----------------------------------------------------------------
SBD (shnid=115598):

Recording Info:
SBD -> Cassette Master -> Dat (44.1k)

Transfer Info:
Dat (Sony R500) -> Tascam SS-R05 -> Samplitude Professional v11.2 -> FLAC
(3 Discs Audio / 1 DVD FLAC)

All Transfers and Mastering By Charlie Miller
[email protected]
August 1, 2011

Patch Info:
(FOB) Nakamichi 700 -> Cassette Master (shnid=95276) supplies:
Drums (2:16 - 2:26)

Notes:
-- Smokestack Lightning jam after Truckin'

-----------------------------------------------------------------
AUD (shnid=131563):

Recording by Jim Wise:
Master Audience Cassette; 2 Sennheiser 421s> Sony D-5

Transfer and FLAC encoding by David Minches: September 2014
Dolby B decoded Master played back on Nakamichi Dragon >
Korg MR-1000(DSF [1-bit 5.6448 MHz Stereo]) Korg AudioGate > WAV [24/96] >
Adobe Audition 3.0> FLAC encoding

16/44 version

-----------------------------------------------------------------
Thank you to Charlie Miller for the SBD transfer,
to Jim Wise for recording the show,
and to David Minches for the AUD transfer.

Matrix by Hunter Seamons using Final Cut Pro (FLAC > AIFF > Final Cut w/EQ > AIFF CD tracking via Audacity > FLAC16 via xACT w/meta-tagging)
November 8, 2014



Set I
-----
d1t01 - Mississippi Half-Step Uptown Toodeloo ->
d1t02 - Franklin's Tower ->
d1t03 - Me And My Uncle
d1t04 - It Must Have Been The Roses
d1t05 - Little Red Rooster
d1t06 - Don't Ease Me In
d1t07 - Lazy Lightning ->
d1t08 - Supplication
d1t09 - Brown Eyed Women ->
d1t10 - Looks Like Rain
d1t11 - Deal

Set II
-----
d2t01 - Scarlet Begonias ->
d2t02 - Fire On The Mountain ->
d2t03 - Lost Sailor ->
d2t04 - Saint Of Circumstance ->
d2t05 - Drums ->
d3t01 - Space ->
d3t02 - The Wheel ->
d3t03 - China Doll ->
d3t04 - Truckin' ->
d3t05 - Sugar Magnolia

Encore
------
d3t06 - (I Can't Get No) Satisfaction ->
d3t07 - Brokedown Palace



Notes:

A JBL 120 speaker blows up during Half-Step, causing some technical difficulties. Steve Parish changes it out, and things are in full working order again by the "Rio Grand-eo" course.



    length     expanded size    cdr  WAVE problems  fmt   ratio  filename
    12:07.62      128388668 B   ---   --   ---xx   flac  0.6055  gd81-03-10d1t01.flac
    10:56.67      115876028 B   ---   --   ---xx   flac  0.6176  gd81-03-10d1t02.flac
     5:18.03       56102300 B   ---   --   ---xx   flac  0.6027  gd81-03-10d1t03.flac
     6:17.56       66634556 B   ---   --   ---xx   flac  0.6203  gd81-03-10d1t04.flac
     7:19.23       77493740 B   ---   --   ---xx   flac  0.6159  gd81-03-10d1t05.flac
     5:07.61       54298316 B   ---   --   ---xx   flac  0.6207  gd81-03-10d1t06.flac
     3:21.06       35470556 B   ---   --   ---xx   flac  0.6720  gd81-03-10d1t07.flac
     7:06.33       75224060 B   ---   --   ---xx   flac  0.6311  gd81-03-10d1t08.flac
     5:20.35       56530364 B   ---   --   ---xx   flac  0.6402  gd81-03-10d1t09.flac
     9:13.35       97631564 B   ---   --   ---xx   flac  0.6186  gd81-03-10d1t10.flac
     7:16.43       77011580 B   ---   --   ---xx   flac  0.6393  gd81-03-10d1t11.flac
    11:56.65      126455324 B   ---   --   ---xx   flac  0.6018  gd81-03-10d2t01.flac
    15:18.68      162095180 B   ---   --   ---xx   flac  0.6162  gd81-03-10d2t02.flac
     6:06.14       64595372 B   ---   --   ---xx   flac  0.6060  gd81-03-10d2t03.flac
     9:40.73      102483740 B   ---   --   ---xx   flac  0.6324  gd81-03-10d2t04.flac
    10:05.62      106867868 B   ---   --   ---xx   flac  0.5583  gd81-03-10d2t05.flac
     2:46.40       29376524 B   ---   --   ---xx   flac  0.5854  gd81-03-10d3t01.flac
     5:50.71       61907036 B   ---   --   ---xx   flac  0.6241  gd81-03-10d3t02.flac
     7:07.10       75346364 B   ---   --   ---xx   flac  0.5946  gd81-03-10d3t03.flac
     8:31.53       90265100 B   ---   --   ---xx   flac  0.6384  gd81-03-10d3t04.flac
    10:00.66      105995276 B   ---   --   ---xx   flac  0.6325  gd81-03-10d3t05.flac
     6:20.01       67034396 B   ---   --   ---xx   flac  0.6448  gd81-03-10d3t06.flac
     5:59.50       63445244 B   ---   --   ---xx   flac  0.5988  gd81-03-10d3t07.flac
   179:11.22     1896529156 B                            0.6165  (23 files)




Show Checksums
ffp
gd81-03-10d1t01.flac:a6998dc83a07df3f5082069d89daea62
gd81-03-10d1t02.flac:ef67ef917f288a01be67e24e1ebb7224
gd81-03-10d1t03.flac:1ae37604f097ff832b58176d0c265c73
gd81-03-10d1t04.flac:e2a9c7cac6d264346f039ced3191dadb
gd81-03-10d1t05.flac:8dfcc8738f590afbfd239eb983e45cea
gd81-03-10d1t06.flac:ebd02eb8e01ccdb4a37510b680115002
gd81-03-10d1t07.flac:c0fa509d8c8b186a3e545afc3b888778
gd81-03-10d1t08.flac:db2e50fc62248654653b030cee4d5ce1
gd81-03-10d1t09.flac:e3a070e753a190a8e0f91a067810bfc8
gd81-03-10d1t10.flac:6ed330b34cc778c4676d6bbae83f7de0
gd81-03-10d1t11.flac:61e7563e59f1e1a67466c21764956fee
gd81-03-10d2t01.flac:d1323c8c63ae90984fa1873405d49de0
gd81-03-10d2t02.flac:78f3b4f369fa580ccc1301edb514cbcd
gd81-03-10d2t03.flac:413fe49f64a05f6a2863a4ce0bbf4889
gd81-03-10d2t04.flac:c1bcd847b9b04bbe0fdf051943185a95
gd81-03-10d2t05.flac:9639ea9e88768bc15c6bd58048d07314
gd81-03-10d3t01.flac:36d9d896f275950a8d77a2958759c7a3
gd81-03-10d3t02.flac:92fca6743dc02c20d5f23f0b790cc9c6
gd81-03-10d3t03.flac:4a3346a245fe255e7d23deb07f1451b6
gd81-03-10d3t04.flac:7c92725d09683741d789925de20201a1
gd81-03-10d3t05.flac:ba7c5541b16c766b894eb5f41622102b
gd81-03-10d3t06.flac:ff116b7d485c49cc3a9b59fca62b1b7a
gd81-03-10d3t07.flac:6dd1daaf76916331266faa24da768ad5
flac-md5
671e4359b1ecaa6d2cc2e1acda4adf22 *gd81-03-10d1t01.flac
07e371261cd3a8e315e6da850734655a *gd81-03-10d1t02.flac
037e3c8b7ac7395643be6a8e77bb78ff *gd81-03-10d1t03.flac
e3e4657b6241d3280a781ca7abf9823d *gd81-03-10d1t04.flac
8a168bb241bc732c30fa8657f6c36ed3 *gd81-03-10d1t05.flac
3c8e775353bab65b1037484fda9a0ed6 *gd81-03-10d1t06.flac
07dd3750f262299165966187193acf3c *gd81-03-10d1t07.flac
cdc294c235269ac1448328c35781bc0c *gd81-03-10d1t08.flac
943c2d488b3fb7f88cf851ccee2f47d7 *gd81-03-10d1t09.flac
2f752ed4a3b8e5a5a9076c298f3d5ab8 *gd81-03-10d1t10.flac
c9299bd562900e8566de30907121b0f1 *gd81-03-10d1t11.flac
5245c269df60cd264f702fc1acdce3a7 *gd81-03-10d2t01.flac
54bdf726cafb544eb5e5fb85b46096f4 *gd81-03-10d2t02.flac
1b0ee7686bdede9b02d71f438d7bf111 *gd81-03-10d2t03.flac
0674db0eac54b1db1eb68bf0da26582b *gd81-03-10d2t04.flac
d8880b2ef0ec1b62e1c9931adf001fc3 *gd81-03-10d2t05.flac
0defe1098cdb2b78b214287e1cff76db *gd81-03-10d3t01.flac
e5ee852efd6858850812d357514c4932 *gd81-03-10d3t02.flac
9be599ab0a46b1747f8c2ec63eb27bff *gd81-03-10d3t03.flac
8bf6fc5f42f470345f65f637f37cf27c *gd81-03-10d3t04.flac
6b3928e370c142dbe56c8bb64125e2d4 *gd81-03-10d3t05.flac
41e2a6cd0cc14a809e2a7bde6d481b08 *gd81-03-10d3t06.flac
06edec36985e7a3a720b29c7eac452e2 *gd81-03-10d3t07.flac

Comments
Add Comment
Other Sources (comments)
Recording by Barry... (0) flac16; Recording by... (2) flac24/96; Recording... (0) flac16; Set 2 only,... (1) flac16; Recording... (0) flac24; Recording... (0) flac16; Recording... (0) flac16; Recording by... (0) flac24; Recording by... (0)
Date User Comment