Browse Collections Artists Sources   Search Dates

Add Show    List Management    Help


Grateful Dead 09/22/93
Madison Square Garden, New York, NY
Comments Add Comment    Source Collectors    Add to Collection    Add to Want List    History
Source # 131736 Other Sources
Entered by Matt Vernon
Checksums flac-md5 , ffp
Disc Counts 0 / 0
Media Size Compressed: 878.46 MB (921137152 bytes)
Uncompressed: 1.54 GB (1656178144 bytes)
Date Circulated
Date Added
11/15/2014
11/15/2014
Source Summary flac16; AUD: Schoeps CMC6/MK4 (ORTF) > unknown mic power and lead dat deck > Coax SPDIF > Casio DA-7 > TDK DA-R DAT, set up end of floor center, directly behind the lighting board. Transfer: MAD > Sony D8 > Optical out > Edirol FA-66 > Wavelab 1644 > CD-Wave > TLH > FLAC 1644 tagged. Recording & transfer by Andrew F. 
  Archive
Source Information - Download Text | Download Zip
GRATEFUL DEAD
Madison Square Garden
New York NY
09-22-1993

s1t01 crowd
s1t02 Help on the Way / Slipknot >
s1t03 Franklin's Tower >
s1t04 Minglewood Blues
s1t05 Ramble On Rose
s1t06 When I Paint My Masterpiece >
s1t07 Birdsong (1)

s2t01 crowd
s2t02 Easy Answers
s2t03 Lazy River Road (1)
s2t04 Estimated Prophet > (1)
s2t05 Dark Star > (1)
s2t06 Drums >
s2t07 Electronic Percussion >
s2t08 Space > (1)
s2t09 Wharf Rat > (1)
s2t10 Throwing Stones > (1)
s2t11 Turn On Your Lovelight (1)(2)
s2t12 crowd
s2t13 I Fought the Law

(1) David Murray, Saxophone
(2) James Cotton, Harmonica

AUD: Schoeps CMC6/MK4 (ORTF) > unknown mic power and lead dat deck >
Coax SPDIF > Casio DA-7 > TDK DA-R DAT, set up end of floor center,
directly behind the lighting board.

Transfer: MAD > Sony D8 > Optical out > Edirol FA-66 > Wavelab 1644 >
CD-Wave > TLH > FLAC 1644 tagged. Recording & transfer by Andrew F.

    length     expanded size    cdr  WAVE problems  fmt   ratio  filename
     4:58.05       52579004 B   ---   --   ---xx   flac  0.4530  gd1993-09-22s1t01.flac
    10:17.49      108954092 B   ---   --   ---xx   flac  0.5894  gd1993-09-22s1t02.flac
    10:04.70      106710284 B   ---   --   ---xx   flac  0.6027  gd1993-09-22s1t03.flac
     9:02.25       95667644 B   ---   --   ---xx   flac  0.5461  gd1993-09-22s1t04.flac
     8:02.74       85198892 B   ---   --   ---xx   flac  0.5938  gd1993-09-22s1t05.flac
     5:24.30       57224204 B   ---   --   ---xx   flac  0.5606  gd1993-09-22s1t06.flac
    14:20.15      151739324 B   ---   --   ---xx   flac  0.5682  gd1993-09-22s1t07.flac
     2:44.62       29075468 B   ---   --   ---xx   flac  0.4063  gd1993-09-22s2t01.flac
     6:26.24       68146892 B   ---   --   ---xx   flac  0.5894  gd1993-09-22s2t02.flac
     7:36.66       80593676 B   ---   --   ---xx   flac  0.5526  gd1993-09-22s2t03.flac
    15:39.40      165733724 B   ---   --   ---xx   flac  0.5711  gd1993-09-22s2t04.flac
     7:46.26       82263596 B   ---   --   ---xx   flac  0.5439  gd1993-09-22s2t05.flac
     6:11.18       65486780 B   ---   --   ---xx   flac  0.5357  gd1993-09-22s2t06.flac
     6:47.59       71933612 B   ---   --   ---xx   flac  0.4454  gd1993-09-22s2t07.flac
    10:22.54      109847852 B   ---   --   ---xx   flac  0.5250  gd1993-09-22s2t08.flac
    11:07.24      117715292 B   ---   --   ---xx   flac  0.5698  gd1993-09-22s2t09.flac
     9:07.00       96490844 B   ---   --   ---xx   flac  0.5883  gd1993-09-22s2t10.flac
     4:50.69       51318332 B   ---   --   ---xx   flac  0.5911  gd1993-09-22s2t11.flac
     1:43.73       18340940 B   ---   --   ---xx   flac  0.4610  gd1993-09-22s2t12.flac
     3:53.24       41157692 B   ---   --   ---xx   flac  0.5827  gd1993-09-22s2t13.flac
   156:28.57     1656178144 B                            0.5560  (20 files)

No errors occured.


Show Checksums
flac-md5
29f704653f5d58a171aa374b5909c6be *gd1993-09-22s1t01.flac
2fde1f44761891d6c45d9210f8c81af7 *gd1993-09-22s1t02.flac
ebb860d1e44ebaa9b8389bb7e5bc8394 *gd1993-09-22s1t03.flac
d83cfb0c6180dd8ad90a7999ebfb8be0 *gd1993-09-22s1t04.flac
2c212d599bb32650a884739f2edd38fc *gd1993-09-22s1t05.flac
257ec453606c10577189b5283bd2b14b *gd1993-09-22s1t06.flac
08d16880ee69668527c0cbc1aa32c395 *gd1993-09-22s1t07.flac
3fe50065699a88c32282ecd9c068ef0b *gd1993-09-22s2t01.flac
95717d913e3d3f773fc4deaccbf6ea65 *gd1993-09-22s2t02.flac
bf2b5e4f66da1d0c2990877ad48881e6 *gd1993-09-22s2t03.flac
294b2fe43df8c456dcadfbc83716b8c6 *gd1993-09-22s2t04.flac
0f047ad7c4f88b02c30fd31577a46bf9 *gd1993-09-22s2t05.flac
801c91a72348f7e129f95ff3cc9afe8d *gd1993-09-22s2t06.flac
4213b762ee5ad14366128de0d91250e3 *gd1993-09-22s2t07.flac
5baf99ed9084aee5831df5d3ad5d31de *gd1993-09-22s2t08.flac
5d0ff50feaf71f679747d6abf8428329 *gd1993-09-22s2t09.flac
815f43202db09729a9aab6c6cef695f5 *gd1993-09-22s2t10.flac
4ee892fa0113d9899bf992823f94f251 *gd1993-09-22s2t11.flac
633f35bf13afa4df7d9b07508a5a4cee *gd1993-09-22s2t12.flac
949b5d71b0e7744e571d947c783fb875 *gd1993-09-22s2t13.flac
ffp
gd1993-09-22s1t01.flac:e59da0662b382c3910039a4761dfa46a
gd1993-09-22s1t02.flac:74dbdbe6188df36548bed48fd9597b43
gd1993-09-22s1t03.flac:424c252837e8770c621079647d11b5e0
gd1993-09-22s1t04.flac:fca999c420aae59175663ac6e0458125
gd1993-09-22s1t05.flac:445ffd26ee8756f2089f6dc870578b9f
gd1993-09-22s1t06.flac:11f3ffb2b7e949187acdada17a5b24e0
gd1993-09-22s1t07.flac:4772774e527ef280f477d85af5e8cf51
gd1993-09-22s2t01.flac:ebf5a8a541898d59d56c363e06eeae72
gd1993-09-22s2t02.flac:873e09a359a560ba9e95427bd5b905d8
gd1993-09-22s2t03.flac:ae09aa36431a96257115ec29a81df89c
gd1993-09-22s2t04.flac:25feb616da1530f30f338870ec5334aa
gd1993-09-22s2t05.flac:c5e0f24a083712f4dc31d4367061a97c
gd1993-09-22s2t06.flac:b93aaf7d1036a123c84ef42e774e20e7
gd1993-09-22s2t07.flac:450fc372291383821d558050bec7fe2b
gd1993-09-22s2t08.flac:d333de0c23260a1b878ecf1823bff4ae
gd1993-09-22s2t09.flac:6271c4a6d9ed2f92dc0de1a7edbfd3b3
gd1993-09-22s2t10.flac:f0cf93fc04e7b6e2be9ceb653de76ce4
gd1993-09-22s2t11.flac:d4b153be97963edb4c1ce7b511165c61
gd1993-09-22s2t12.flac:aa961088b3f8a2986936c269abfa5449
gd1993-09-22s2t13.flac:cc9be2f90fd9a6d383f075b2833c502f

Comments
Add Comment
Other Sources (comments)
DSBD> DAT> CDR> EAC> WAV>... (2) Recorded FOB/DFC by James... (2) DAUD/FOB Schoeps... (0) Source: SBD:DAT-> CDR -... (0) flac16; FOB Digital... (0) flac16; Schoeps... (0) flac16; Master: OTS... (0) flac16; Two Source... (0) flac16; Matrix using... (1) flac16; Matrix... (0) flac16/48kHz;... (0) flac16/48kHz;... (1) flac16; Matrix 2... (0) DTS-Audio-CD 5.1... (0) flac16/48kHz; 5.1... (0)
Date User Comment