Browse Collections Artists Sources   Search Dates

Add Show    List Management    Help


Grateful Dead 10/19/81
Sports Palace, Barcelona, Spain
Comments Add Comment    Source Collectors    Add to Collection    Add to Want List    History
Source # 131801 Other Sources
Entered by Matt Vernon
Checksums ffp , flac-md5
Disc Counts 0 / 0
Media Size Compressed: 1.04 GB (1113315128 bytes)
Uncompressed: 1.69 GB (1819155456 bytes)
Date Circulated
Date Added
12/04/2014
12/02/2014
Source Summary flac16; 2 source matrix by Dusborne; Soundboard (shnid:095781) Recording Info: SBD -> Cassette Master -> Cassette -> Dat -> CD -> EAC -> SHN; Transfer Info: SHN -> Adobe Audition v1.5 -> Samplitude Professional v10.1 -> FLAC; and Audience (shnid:131465) Beyer M-160>Sony TC-D5m; Transfer 1st set MAC>Sony TC-K3es>USBPre2; Transfer 2nd set 1st Gen>Sony TC-K3es>USBPre2; Recorded center directly in back of soundboard; Recorded and transferred By Richie stankiewicz 
  Archive
Source Information - Download Text | Download Zip
Grateful Dead
October 19, 1981
Sports Palace
Barcelona, Spain

2 Source Matrix

Soundboard (shnid:095781)
--------------------------------------------------------------------------------
gd81-10-19.095781.sbd.miller.sbeok.t-flac16

Recording Info:
SBD -> Cassette Master -> Cassette -> Dat -> CD -> EAC -> SHN

Transfer Info:
SHN -> Adobe Audition v1.5 -> Samplitude Professional v10.1 -> FLAC
(3 Discs Audio / 2 Discs FLAC)

All Transfers and Mastering By Charlie Miller
[email protected]
November 12, 2008

Notes:
-- Set 2 disc change is seamless
-- This is a clean up of shnid=7914
-- The mix is a mess not much I could about that
-- Phil is not in mix for first few songs
-- Tape flip between Space and Drums cleaned up with crossfade
-- Thanks to Joe B. Jones for his help with the pitch correction


Audience (shnid:131465)
-------------------------------------------------------------------------------
gd1981-10-19.131465.stankiewicz.flac2496

*passenger missing after Tennessee Jed
*patch on Althea (Zappa Source)Thanks Zappa
*portion of drums missing
Beyer M-160>Sony TC-D5m
Transfer 1st set MAC>Sony TC-K3es>USBPre2
Transfer 2nd set 1st Gen>Sony TC-K3es>USBPre2
Recorded center directly in back of soundboard
Recorded and transferred By Richie stankiewicz

Audience (shnid:119976) ***Used to patch Passenger and Drums***
-------------------------------------------------------------------------------
gd1981-10-19.119976.aud.Zappa.carbobueno.flac16

recording: aud master recording

lineage: master analog tape SONY low noise 90 x 2 > aiwa wx 220 > audacity> cd wave ed.>TLH> flac

equipment: unknown

recorded : by Zappa edited by carbobueno

--------------------------------------------------------------------------------
---Thank you Charlie Miller for your work on the SBD.
---Thank you Joe B. Jones for pitch correction on the SBD.
---Thank you Richie stankiewicz for recording and sharing the show.
---Thank you Zappa for recording the show.
---Thank you Carbobueno for your work on the AUD.(shnid:119976)
---Thank you XJ32 for the art work.
---Thank you Germain for your advice, encouragement, guidance and seeding.

Matrix by dusborne

11-29-2014
-------------------------------------------------------------------------------

Set 1

101 - gd81-10-19s1t01 - Tuning
102 - gd81-10-19s1t02 - Jack Straw ->
103 - gd81-10-19s1t03 - Franklin's Tower
104 - gd81-10-19s1t04 - Mama Tried ->
105 - gd81-10-19s1t05 - Mexicali Blues
106 - gd81-10-19s1t06 - Loser ->
107 - gd81-10-19s1t07 - C C Rider
108 - gd81-10-19s1t08 - Tennessee Jed
109 - gd81-10-19s1t09 - Passenger
110 - gd81-10-19s1t10 - Althea ->
111 - gd81-10-19s1t11 - Let It Grow

Set 2
201 - gd81-10-19s2t01 - Tuning
202 - gd81-10-19s2t02 - Scarlet Begonias ->
203 - gd81-10-19s2t03 - Fire on the Mountain ->
204 - gd81-10-19s2t04 - Lost Sailor ->
205 - gd81-10-19s2t05 - Saint of Circumstance ->
206 - gd81-10-19s2t06 - Jam ->
207 - gd81-10-19s2t07 - Drums ->
208 - gd81-10-19s2t08 - Space ->
209 - gd81-10-19s2t09 - Spanish Jam ->
210 - gd81-10-19s2t10 - The Other One ->
211 - gd81-10-19s2t11 - Stella Blue ->
212 - gd81-10-19s2t12 - Sugar Magnolia

Encore
213 - gd81-10-19s2t13 - Don't Ease Me In
------------------------------------------------------------------------------------

Tagging notes:
Show information is embedded within the headerof each flac file.
It will display on any player capable of directly playing flac files.
If converted to wav during processing, all tags will be stripped,
however audio data will remain unaffected.
If you must transcode to a lossy format, do so directly Flac > Lossy.
Use ffp to validate audio integrity.
Md5 values will change if tagging is altered.

Dave Usborne 11-29-2014
------------------------------------------------------------------------------------

    length     expanded size    cdr  WAVE problems  fmt   ratio  filename
     1:19.50       14053244 B   ---   --   ---xx   flac  0.4887  gd81-10-19s1t01.flac
     5:35.47       59204588 B   ---   --   ---xx   flac  0.6351  gd81-10-19s1t02.flac
    14:39.68      155215580 B   ---   --   ---xx   flac  0.6233  gd81-10-19s1t03.flac
     2:29.38       26373020 B   ---   --   ---xx   flac  0.6338  gd81-10-19s1t04.flac
     5:08.72       54500588 B   ---   --   ---xx   flac  0.6310  gd81-10-19s1t05.flac
     7:18.29       77331452 B   ---   --   ---xx   flac  0.6236  gd81-10-19s1t06.flac
     8:49.35       93397964 B   ---   --   ---xx   flac  0.6089  gd81-10-19s1t07.flac
     9:20.68       98943980 B   ---   --   ---xx   flac  0.6176  gd81-10-19s1t08.flac
     5:08.38       54420620 B   ---   --   ---xx   flac  0.6484  gd81-10-19s1t09.flac
     7:59.12       84523868 B   ---   --   ---xx   flac  0.6138  gd81-10-19s1t10.flac
    14:45.72      156283388 B   ---   --   ---xx   flac  0.6175  gd81-10-19s1t11.flac
     1:07.10       11842364 B   ---   --   ---xx   flac  0.5105  gd81-10-19s2t01.flac
    14:08.31      149660156 B   ---   --   ---xx   flac  0.6123  gd81-10-19s2t02.flac
     9:52.35      104511164 B   ---   --   ---xx   flac  0.5988  gd81-10-19s2t03.flac
     7:16.56       77042156 B   ---   --   ---xx   flac  0.5759  gd81-10-19s2t04.flac
     8:01.42       84947228 B   ---   --   ---xx   flac  0.6144  gd81-10-19s2t05.flac
     6:02.56       63988556 B   ---   --   ---xx   flac  0.5416  gd81-10-19s2t06.flac
     5:05.23       53856140 B   ---   --   ---xx   flac  0.6078  gd81-10-19s2t07.flac
     1:54.05       20121404 B   ---   --   ---xx   flac  0.5842  gd81-10-19s2t08.flac
     2:34.61       27309116 B   ---   --   ---xx   flac  0.6028  gd81-10-19s2t09.flac
     8:19.39       88115372 B   ---   --   ---xx   flac  0.6277  gd81-10-19s2t10.flac
     9:46.20      103417484 B   ---   --   ---xx   flac  0.6144  gd81-10-19s2t11.flac
    11:49.55      125197004 B   ---   --   ---xx   flac  0.6230  gd81-10-19s2t12.flac
     3:17.63       34899020 B   ---   --   ---xx   flac  0.6258  gd81-10-19s2t13.flac
   171:52.50     1819155456 B                            0.6120  (24 files)




Show Checksums
ffp
gd81-10-19s1t01.flac:3564229c0298a1879975483a9d51fc4f
gd81-10-19s1t02.flac:0d449b86bccbc875dec31524acad3904
gd81-10-19s1t03.flac:2fef16d256cad15106eac4d08a7ea6ae
gd81-10-19s1t04.flac:f07d2c45a7ceec7244bf025f4d33017f
gd81-10-19s1t05.flac:9c784f38356603f70194207f1819cd18
gd81-10-19s1t06.flac:9987fb341879a613dfb1348374920a4d
gd81-10-19s1t07.flac:9d7643386c11a0df5414b175cc27a122
gd81-10-19s1t08.flac:2da5167ae8d14cefb374b7a5dc15bf03
gd81-10-19s1t09.flac:7640d396600385acc1d04ff6c57ac6f7
gd81-10-19s1t10.flac:318589a291078c1a7fa74c0fb147e936
gd81-10-19s1t11.flac:555124c59178027a645a227c7b49ab5b
gd81-10-19s2t01.flac:ce3db85b668263520654925931a6b8a2
gd81-10-19s2t02.flac:dc9d9b9e1751b85724c98c5431e6260b
gd81-10-19s2t03.flac:6686261944f3c99bb7a25325cb212dc6
gd81-10-19s2t04.flac:57cdd44d2a4883b586a803cdbc014604
gd81-10-19s2t05.flac:e20e8bf32d049cdf1d21d1f9155ae049
gd81-10-19s2t06.flac:898b9f9449040b917469aa91a9e6d07c
gd81-10-19s2t07.flac:fc53367987029fedf0190d411fdbc40e
gd81-10-19s2t08.flac:dc7f3d00a8bae43ac009ac55c9cda87d
gd81-10-19s2t09.flac:76fa6c6d5f69d61d8bf27334067412e7
gd81-10-19s2t10.flac:e540c522b60c25337c2483595c3f110a
gd81-10-19s2t11.flac:0ebea27e846394062e757e6af54ee97c
gd81-10-19s2t12.flac:397cd9a842310ab54fc7e80b51f51490
gd81-10-19s2t13.flac:7bcc72b07395508e774c099ec9fd8f19
flac-md5
3807bddc8293a89d15b20a47e27a0e86 *gd81-10-19s1t01.flac
dcc650f79cd18d2b4e229ba6e5f6ce49 *gd81-10-19s1t02.flac
ffd899405eefc422c6ed2e49c976c11f *gd81-10-19s1t03.flac
e4f388dd9afad0439b407f6513690644 *gd81-10-19s1t04.flac
477b393a3a364168ca06c57a10aafde9 *gd81-10-19s1t05.flac
7e5e581a4bff615406529a24f6f15730 *gd81-10-19s1t06.flac
5713172cff09132363c486ae18c70c99 *gd81-10-19s1t07.flac
400f69bcc7af6b0ab323e1c2107e8ad4 *gd81-10-19s1t08.flac
9a0cadd9fa5561a230cd59ab951191a0 *gd81-10-19s1t09.flac
4edd54d2abefd1b06e7af11f5e6854ce *gd81-10-19s1t10.flac
70f6fc61c3a9f5b8711de01152716a04 *gd81-10-19s1t11.flac
965079ced0cddbd005802bc1c9b3cd39 *gd81-10-19s2t01.flac
6db60db13fe4a507702cb645c763c382 *gd81-10-19s2t02.flac
205677423d0e69b7116b3907fba15c9e *gd81-10-19s2t03.flac
697833dc601462da56ae646a5527dd75 *gd81-10-19s2t04.flac
053ecd5606e3082f41036dc41ae88254 *gd81-10-19s2t05.flac
1b0fefb4de2e7c043588d3517a3ebac0 *gd81-10-19s2t06.flac
70f7a1f820ea31694bbb257a59d6500c *gd81-10-19s2t07.flac
a9cfaffbaea2fc71222e7de12872ce00 *gd81-10-19s2t08.flac
50d5fbbe207c0e585c4daf510338ae14 *gd81-10-19s2t09.flac
8a9fea805168f2216e532a81ffa269b4 *gd81-10-19s2t10.flac
b109ca9d25d0b6a74a0021ea18e30a3e *gd81-10-19s2t11.flac
a94585e72beb1771982033defb9906d8 *gd81-10-19s2t12.flac
a7e9779f8ccd96035effe661e8ac925d *gd81-10-19s2t13.flac

Comments
Add Comment
Other Sources (comments)
SBD: CM > CASS > DAT > Pro... (1) flac16; Recording... (0) flac16: recording:... (1) flac24; Beyer... (0) flac16; Source:... (0)
Date User Comment
12/14/2014 Wharfrat73 Updated .md5 file to include the two tracks that were missing in the original seed of this source.