Browse Collections Artists Sources   Search Dates

Add Show    List Management    Help


Phil Lesh & Friends 12/05/03
Beacon Theater, New York, NY
Comments Add Comment    Source Collectors    Add to Collection    Add to Want List    History
Source # 131889 Other Sources
Entered by Matt Vernon
Checksums ffp , flac-md5
Disc Counts 0 / 0
Media Size
Date Circulated
Date Added

12/06/2014
Source Summary Source: AKG 522(lodge clamp)>V3>d8ms roc Transfer: DAT>R44> Audacity 2.0.1> Xact 2.25 > FLAC Recorded and Transferred:Jason Picklemic Loomis picklemic 2 @ gmail 
  Archive
Source Information - Download Text | Download Zip
Phil Lesh Quintet
December 5, 2003
Beacon Theater
NY,NY

Source: AKG 522(lodge clamp)>V3>d8ms roc
Transfer: DAT>R44> Audacity 2.0.1> Xact 2.25 > FLAC
Recorded and Transferred:Jason Picklemic Loomis  picklemic 2 @ gmail

Set 1
01. Jam>
02. Again & Again>
03. Midnight Train>
04. Loose Lucy
05. Wharf Rat>
06. Scarlet>
07. Fire

Set 2
01. Jam>
02. Just A Little Light>
03. All That We Are>
04. Golden Road>
05. Dark Star (v.1)>
06. I am the Walrus>
07. Dark Star (v.2)>
08. Standing on the Moon
09. Viola Lee
10. E) Barroco organ donor banter & Molo band intros
11. Real Thing

    length     expanded size    cdr  WAVE problems  fmt   ratio  filename
     7:50.941      90420692 B   cxx   --   ---xx   flac  0.5202  PLQ2003-12-05s1t01.flac
    10:18.482     118748524 B   cxx   --   ---xx   flac  0.5264  PLQ2003-12-05s1t02.flac
    12:44.164     146719520 B   cxx   --   ---xx   flac  0.5571  PLQ2003-12-05s1t03.flac
     8:19.693      95941116 B   cxx   --   ---xx   flac  0.5387  PLQ2003-12-05s1t04.flac
    21:22.930     246322660 B   cxx   --   ---xx   flac  0.5082  PLQ2003-12-05s1t05.flac
     8:59.007     103489372 B   cxx   --   ---xx   flac  0.5936  PLQ2003-12-05s1t06.flac
    10:55.385     125833900 B   cxx   --   ---xx   flac  0.5841  PLQ2003-12-05s1t07.flac
     7:11.601      82867528 B   cxx   --   ---xx   flac  0.5318  PLQ2003-12-05s2t01.flac
     9:17.245     106991172 B   cxx   --   ---xx   flac  0.5884  PLQ2003-12-05s2t02.flac
    10:01.455     115479336 B   cxx   --   ---xx   flac  0.5492  PLQ2003-12-05s2t03.flac
    12:23.973     142842868 B   cxx   --   ---xx   flac  0.5470  PLQ2003-12-05s2t04.flac
    12:11.955     140535384 B   cxx   --   ---xx   flac  0.5363  PLQ2003-12-05s2t05.flac
     8:35.399      98956564 B   cxx   --   ---xx   flac  0.5577  PLQ2003-12-05s2t06.flac
     7:22.934      85043456 B   cxx   --   ---xx   flac  0.5385  PLQ2003-12-05s2t07.flac
     8:49.985     101757128 B   cxx   --   ---xx   flac  0.5048  PLQ2003-12-05s2t08.flac
     6:35.438      75924184 B   cxx   --   ---xx   flac  0.5972  PLQ2003-12-05s2t09.flac
     5:04.391      58443096 B   cxx   --   ---xx   flac  0.5056  PLQ2003-12-05s2t10.flac
     7:26.412      85711204 B   cxx   --   ---xx   flac  0.5113  PLQ2003-12-05s2t11.flac
   175:31.390    2022027704 B                            0.5431  (18 files)

Show Checksums
ffp
PLQ2003-12-05s1t01.flac:7dd2999e3768b866761f637684a2f141
PLQ2003-12-05s1t02.flac:becb81c1bb19218b7a7c3d335257db00
PLQ2003-12-05s1t03.flac:e1828e91990b2309235835d96fdcf13e
PLQ2003-12-05s1t04.flac:b0273dbe2d307644926f261a2b96b3d1
PLQ2003-12-05s1t05.flac:dea89720224f51bd56e0248b902bcae6
PLQ2003-12-05s1t06.flac:95e51a3d467b33cf51d83620e6e9cc3d
PLQ2003-12-05s1t07.flac:ef374594401ba48e7a7ad156f46c921f
PLQ2003-12-05s2t01.flac:e29cd3892b342348e1af4dbd42de1787
PLQ2003-12-05s2t02.flac:e0e573c89e7a217e93602db4bcf5eb7b
PLQ2003-12-05s2t03.flac:acfa7eb6c6ab7fb62994ea5659364b53
PLQ2003-12-05s2t04.flac:287ef0f4a73f4cf60027722af32cc125
PLQ2003-12-05s2t05.flac:40e5f90c6ae29d5d69986e0bd11bba8f
PLQ2003-12-05s2t06.flac:92668d675fde6b4439ca12a2e0d8a7e9
PLQ2003-12-05s2t07.flac:5f9bc150c3d879effc67ac1430a4270a
PLQ2003-12-05s2t08.flac:4d3eb90d88f0c26e73bf60f430c06524
PLQ2003-12-05s2t09.flac:1857b92083c819e2ea61e0eeecfe4ff6
PLQ2003-12-05s2t10.flac:55b1668e9277ec2dd1326de8d51a3877
PLQ2003-12-05s2t11.flac:c3adaa790b841fedacbd4a76220f48ce
flac-md5
cdac6916b427f35b6d0cf28db7e32e75 *PLQ2003-12-05s1t01.flac
947e786fa499b18c1dc7df82879b3f5c *PLQ2003-12-05s1t02.flac
eb6be88281120029ba353eb498e2b05d *PLQ2003-12-05s1t03.flac
d736a9509f80e0222b3ad1dfb807690a *PLQ2003-12-05s1t04.flac
77cd5afa1c8d3aec598d9b39590ba329 *PLQ2003-12-05s1t05.flac
c5898cc1cade510b080c47b0459aab51 *PLQ2003-12-05s1t06.flac
7b2ce3d93d4a0e1405276d67e4e605ca *PLQ2003-12-05s1t07.flac
656996523a136853c34d30730f33f35e *PLQ2003-12-05s2t01.flac
723b8d3ce95030e3dc07615896623190 *PLQ2003-12-05s2t02.flac
3db5a1db475a6c9fee5f1e11250c05f8 *PLQ2003-12-05s2t03.flac
c609c3ae5e97ac4f2d94933de4989e65 *PLQ2003-12-05s2t04.flac
c60502c61c78676f0a2dd5a9063fa6c5 *PLQ2003-12-05s2t05.flac
a66e015f4559577cfa9aa22410649fdc *PLQ2003-12-05s2t06.flac
c6a996c6084d15db07fb1ad930e24df2 *PLQ2003-12-05s2t07.flac
516253b9f2ef092fefc16df5d793e618 *PLQ2003-12-05s2t08.flac
538500a7861476d6c38658d598cef913 *PLQ2003-12-05s2t09.flac
bb078c80e799674bd5e09eafd1266aab *PLQ2003-12-05s2t10.flac
885d24b9c0e5b6b55a75b4785b9270f5 *PLQ2003-12-05s2t11.flac

Comments
Add Comment
Other Sources (comments)
Source: (fob)Schoeps... (1) Lower Balcony front dead... (0) Source: (fob)Schoeps... (0) schoeps mk4 (ortf @ 5.5ft,... (0)
Date User Comment