Browse Collections Artists Sources   Search Dates

Add Show    List Management    Help


Yonder Mountain String Band 01/26/13
The Tabernacle, Atlanta, GA
Comments Add Comment    Source Collectors    Add to Collection    Add to Want List    History
Source # 131996 Other Sources
Entered by
Checksums ffp
Disc Counts 0 / 0
Media Size
Uncompressed: 1.76 GB (1887681196 bytes)
Date Circulated
Date Added
01/27/2013
12/14/2014
Source Summary Source: AKG c426b (xy 90', dfc, 1st balcony rail)>V3 (24/192)>sd722
Transfer: firewire>[wavelab 6.10: Crystal Resampler (downsample) iZotope Ozone 4 (dither)]>CDWav (splits)>FLAC
taped and transferred by John Barren 
Source Information - Download Text | Download Zip
Yonder Mountain String Band
2013-01-26
The Tabernacle, Atlanta, Ga.

Source: AKG c426b (xy 90', dfc, 1st balcony rail)>V3 (24/192)>sd722
Transfer: firewire>[wavelab 6.10: Crystal Resampler (downsample) iZotope Ozone 4 (dither)]>CDWav (splits)>FLACFrontend
taped and transferred by John Barren
A Team Dirty South Recording

Set 1
01. tuning
02. Raleigh and Spencer
03. Aint' No Way of Knowing
04. Another Day Without You
05. It Takes a Lot to Laugh It Takes a Train to Cry
06. Pretty Daughter
07. Strait Line
08. Pass This Way
09. Red Rocking Chair
10. Lonesome Letter
11. Traffic Jam> After Midnight> Traffic Jam
12. house music

Set 2
01. tuning
02. Kentucky Mandolin>
03. East Nashville Easter
04. Going Where They Do Not Know My Name
05. Winds of Wyoming
06. Only a Northern Song
07. King Ebeneezer>
08. Fingerprint
09. Fastball>
10. Left Me In a Hole
11. Snow On the Pines> Sand> Snow On the Pines>
12. Boatman
13. crowd
encore
14. Holdin'
15. Mental Breakdown
16. Jesus On the Mainline
17. house music

Shntool
        length     expanded size    cdr  WAVE problems  fmt   ratio  filename
     0:42.29        7477052 B   ---   --   ---xx   flac  0.4344  ymsb2013-01-26s1t01.flac
     7:54.61       83757116 B   ---   --   ---xx   flac  0.5166  ymsb2013-01-26s1t02.flac
     3:30.28       37109900 B   ---   --   ---xx   flac  0.4922  ymsb2013-01-26s1t03.flac
     3:37.47       38389388 B   ---   --   ---xx   flac  0.4934  ymsb2013-01-26s1t04.flac
     4:35.66       48665276 B   ---   --   ---xx   flac  0.4846  ymsb2013-01-26s1t05.flac
     7:44.67       82007228 B   ---   --   ---xx   flac  0.5147  ymsb2013-01-26s1t06.flac
     4:17.17       45374828 B   ---   --   ---xx   flac  0.4965  ymsb2013-01-26s1t07.flac
     8:10.59       86574812 B   ---   --   ---xx   flac  0.5005  ymsb2013-01-26s1t08.flac
     4:24.44       46673132 B   ---   --   ---xx   flac  0.4994  ymsb2013-01-26s1t09.flac
     5:32.17       58604828 B   ---   --   ---xx   flac  0.4986  ymsb2013-01-26s1t10.flac
    17:38.54      186758252 B   ---   --   ---xx   flac  0.5036  ymsb2013-01-26s1t11.flac
     1:08.38       12084620 B   ---   --   ---xx   flac  0.4218  ymsb2013-01-26s1t12.flac
     0:38.17        6743228 B   ---   --   ---xx   flac  0.4076  ymsb2013-01-26s2t01.flac
     7:22.64       78119372 B   ---   --   ---xx   flac  0.4842  ymsb2013-01-26s2t02.flac
     7:46.04       82211852 B   ---   --   ---xx   flac  0.5137  ymsb2013-01-26s2t03.flac
     3:27.48       36627740 B   ---   --   ---xx   flac  0.5040  ymsb2013-01-26s2t04.flac
     3:58.44       42086732 B   ---   --   ---xx   flac  0.5070  ymsb2013-01-26s2t05.flac
     9:41.18      102530780 B   ---   --   ---xx   flac  0.5012  ymsb2013-01-26s2t06.flac
    10:27.67      110760428 B   ---   --   ---xx   flac  0.4911  ymsb2013-01-26s2t07.flac
     5:19.14       56304572 B   ---   --   ---xx   flac  0.4901  ymsb2013-01-26s2t08.flac
     1:16.19       13451132 B   ---   --   ---xx   flac  0.4938  ymsb2013-01-26s2t09.flac
     6:16.11       66352316 B   ---   --   ---xx   flac  0.4973  ymsb2013-01-26s2t10.flac
    30:17.46      320627036 B   ---   --   ---xx   flac  0.4865  ymsb2013-01-26s2t11.flac
     4:51.55       51461804 B   ---   --   ---xx   flac  0.5349  ymsb2013-01-26s2t12.flac
     2:23.47       25335788 B   ---   --   ---xx   flac  0.4633  ymsb2013-01-26s2t13.flac
     4:23.04       46402652 B   ---   --   ---xx   flac  0.4890  ymsb2013-01-26s2t14.flac
     3:59.06       42173756 B   ---   --   ---xx   flac  0.4985  ymsb2013-01-26s2t15.flac
     5:40.39       60067772 B   ---   --   ---xx   flac  0.5192  ymsb2013-01-26s2t16.flac
     1:13.30       12947804 B   ---   --   ---xx   flac  0.4843  ymsb2013-01-26s2t17.flac
   178:21.10     1887681196 B                            0.4975  (29 files)


Show Checksums
ffp
ymsb2013-01-26s1t01.flac:e362915906435c91ba2e67156fd0f024
ymsb2013-01-26s1t02.flac:7a2c35035435a14ebdc5c1c2bb844961
ymsb2013-01-26s1t03.flac:632ea3eab13c3324e0f0aa3b9e9dbd0e
ymsb2013-01-26s1t04.flac:0f7fe2f3117003e7c038178f5015fd7a
ymsb2013-01-26s1t05.flac:e1a4c435ce0d79df69a6fa8b6ac60ad4
ymsb2013-01-26s1t06.flac:678d8918908af59b479657ad724fe5cb
ymsb2013-01-26s1t07.flac:162819bfc26d3b795639588b341bcf46
ymsb2013-01-26s1t08.flac:62190c220dbf8877afcbc7238eeed260
ymsb2013-01-26s1t09.flac:4316733ce1af2e8de33a52a89782a154
ymsb2013-01-26s1t10.flac:2a2953d3707d53ca11eec8fd01c1f6ee
ymsb2013-01-26s1t11.flac:46aa748d20bee46a0a375568ebdd4bd3
ymsb2013-01-26s1t12.flac:8ce62d466ba2d4c90183733203f52584
ymsb2013-01-26s2t01.flac:c84f08f85e153fe100c21c6c55e4a846
ymsb2013-01-26s2t02.flac:6caf6525be0b39ffca1cf20d87a2f58d
ymsb2013-01-26s2t03.flac:943445634ac86af54a4fbba61a3edc8e
ymsb2013-01-26s2t04.flac:abacdc68a0ca74da3ab63da82c6edc60
ymsb2013-01-26s2t05.flac:2d385a829fc4aea3db78a0252f45017c
ymsb2013-01-26s2t06.flac:aa7e4b7b6edd55b6ddc20de6f8ceea19
ymsb2013-01-26s2t07.flac:b84996a9acd7ae1ade088fb574545c6c
ymsb2013-01-26s2t08.flac:5e6c5c09a561cdefd4c0a6722d82b365
ymsb2013-01-26s2t09.flac:24b8541314d8382b4dcbd017c330dfe5
ymsb2013-01-26s2t10.flac:78d3d708a31777a08ea17931795d30da
ymsb2013-01-26s2t11.flac:ddf3dbee86ff98f56ca13b8490d3250e
ymsb2013-01-26s2t12.flac:14c6681d093d5d442f08542253792b32
ymsb2013-01-26s2t13.flac:244128d26c04cc8cbf67112efbb5dbc1
ymsb2013-01-26s2t14.flac:c56f546b0dd97ef4dda062767c547503
ymsb2013-01-26s2t15.flac:ac9432121123dcb29cc9edeb79f2df0b
ymsb2013-01-26s2t16.flac:bd01779cbf92ffc8e779e9433709c0e9
ymsb2013-01-26s2t17.flac:183631cfb62d4663594c508f12885da5

Comments
Add Comment
Date User Comment