Browse Collections Artists Sources   Search Dates

Add Show    List Management    Help


Phil Lesh & Friends 11/09/07
Nokia Theatre, New York, NY
Comments Add Comment    Source Collectors    Add to Collection    Add to Want List    History
Source # 132005 Other Sources
Entered by Matt Vernon
Checksums flac-md5 , ffp
Disc Counts 2 / 3
Media Size
Uncompressed: 1.67 GB (1798193296 bytes)
Date Circulated
Date Added
12/15/2014
12/15/2014
Source Summary Soundboard Download from archive.org > Cool Edit 2000 > Flac Optimized and evened out the amplitudes. See notes below. 
  Archive
Source Information - Download Text | Download Zip
THIS SOUNDBOARD IS **FREE** THANKS TO PHIL & FRIENDS (WWW.PHILLESH.NET)

-------------------------------------------------------------------
Cool Edit 2000, by Phil Matera, December 15, 2014
Soundboard Download from archive.org > Cool Edit 2000 > Flac
Optimized and evened out the amplitudes.  Quick Filter to balance
the sound.  Reverb / Concert Light Hall to give ambience.  For
a relatively quick remastering I am very happy with the result.
Also: retracked and added faux song names to distinctive jams.
The audience of this show is also worth having.  The sound on the
audience is great and it has a lot to offer in and of itself.
-------------------------------------------------------------------

PHIL LESH AND FRIENDS
Nokia Theatre Times Square
New York, NY
November 9, 2007

1st Set
1. Loose Lucy >
2. Lucy Jam >
3. Mississippi Half-Step Uptown Toodleloo >
4. Mississippi Interlude
5. So Hard to Find My Way
6. Cold Rain and Snow
7. Tell Me Mama
8. Loan Me A Dime
9. Goin' Down The Road Feelin' Bad

2nd Set
10. Like a Ball and Chain >
11. StruttinÂ’ the Blues Jam >
12. Next Time You See Me >
13. Turn on Your Lovelight
14. Down In The Valley Woe >
15. On The Wharf >
16. Don't Let Me Down >
17. From Earth To Moon >
18. Mountains of the Moon >
19. From Moon To Earth >
20. Terrapin Station >
21. And a Trip Around It >
22. Viola Lee Blues
23. Mason's Children
24. Donor Rap/Intros
25. E: Johnny B. Goode

Phil Lesh (bass, vocals)
Jackie Greene (guitar, vocals)
Larry Campbell (guitar & more)
Steve Molitz (keyboards)
John Molo (drums)

------------------------------

    length     expanded size    cdr  WAVE problems  fmt   ratio  filename
     9:30.48      100660940 B   ---   --   ---xx   flac  0.5418  paf2007-11-09-01.flac
     7:30.12       79408268 B   ---   --   ---xx   flac  0.5257  paf2007-11-09-02.flac
     9:28.41      100291676 B   ---   --   ---xx   flac  0.5247  paf2007-11-09-03.flac
     2:21.29       24940652 B   ---   --   ---xx   flac  0.5031  paf2007-11-09-04.flac
     7:19.06       77454352 B   -b-   --   ---xx   flac  0.4927  paf2007-11-09-05.flac
    12:36.52      133480284 B   -b-   --   ---xx   flac  0.5388  paf2007-11-09-06.flac
     5:14.31       55463632 B   -b-   --   ---xx   flac  0.5201  paf2007-11-09-07.flac
     8:21.38       88464804 B   -b-   --   ---xx   flac  0.4648  paf2007-11-09-08.flac
     9:03.42       95884780 B   -b-   --   ---xx   flac  0.5555  paf2007-11-09-09.flac
     5:11.15       54895724 B   ---   --   ---xx   flac  0.5770  paf2007-11-09-10.flac
     3:11.69       33854732 B   ---   --   ---xx   flac  0.5142  paf2007-11-09-11.flac
     8:59.53       95204300 B   ---   --   ---xx   flac  0.5274  paf2007-11-09-12.flac
     9:05.06       96151924 B   -b-   --   ---xx   flac  0.5356  paf2007-11-09-13.flac
     4:35.42       48608828 B   ---   --   ---xx   flac  0.5417  paf2007-11-09-14.flac
     2:22.10       25072364 B   ---   --   ---xx   flac  0.4320  paf2007-11-09-15.flac
     5:24.57       57287708 B   ---   --   ---xx   flac  0.4910  paf2007-11-09-16.flac
     6:12.02       65625548 B   ---   --   ---xx   flac  0.4984  paf2007-11-09-17.flac
    10:21.39      109636172 B   ---   --   ---xx   flac  0.4820  paf2007-11-09-18.flac
     4:30.18       47670380 B   ---   --   ---xx   flac  0.5406  paf2007-11-09-19.flac
     4:27.49       47214092 B   ---   --   ---xx   flac  0.5667  paf2007-11-09-20.flac
     5:20.05       56459804 B   ---   --   ---xx   flac  0.5201  paf2007-11-09-21.flac
    13:49.55      146364172 B   -b-   --   ---xx   flac  0.5464  paf2007-11-09-22.flac
     6:57.04       73567204 B   -b-   --   ---xx   flac  0.5578  paf2007-11-09-23.flac
     2:24.46       25509836 B   ---   --   ---xx   flac  0.3985  paf2007-11-09-24.flac
     5:34.44       59021120 B   -b-   --   ---xx   flac  0.5471  paf2007-11-09-25.flac
   169:53.62     1798193296 B                            0.5237  (25 files)

------------------------------




Show Checksums
flac-md5
fc15f6338aa853a1176c1a545299ff6d *paf2007-11-09-01.flac
3a52a612db0254121705e1369e85fa11 *paf2007-11-09-02.flac
a274cae8c79c8dc6c3361888ed0fccd4 *paf2007-11-09-03.flac
ee752b7e1528f08f2f8e973109f8592d *paf2007-11-09-04.flac
ec273ab4f4c5cc484a0ed039c5276f51 *paf2007-11-09-05.flac
5b241dc7541f64df60c8dd43f89556ff *paf2007-11-09-06.flac
2de4953ed5fd09bd7994b6dcf3c0d399 *paf2007-11-09-07.flac
5f2743c6495dffbb4bbd62ae3e6caac8 *paf2007-11-09-08.flac
b2e1a9ac815659d8f81b9708f44c8437 *paf2007-11-09-09.flac
fa99c82d320c77b4ef6e4c6f2e47d382 *paf2007-11-09-10.flac
aafbaf6e4d006ddd020994ba8c0435b1 *paf2007-11-09-11.flac
da3b952da7aef74d30d0865d8c92ab15 *paf2007-11-09-12.flac
3c256e7e697641d8e343f008a5411147 *paf2007-11-09-13.flac
22a4e8a59950b9e2b5a09848fe731426 *paf2007-11-09-14.flac
856ece57fee62a4886e726f15d833c8b *paf2007-11-09-15.flac
d3fe7209d8761e32cd3b5d35e9c1e540 *paf2007-11-09-16.flac
9ad4711fd7bfebde2414e9bf0d466f18 *paf2007-11-09-17.flac
7c52303fd88b41f602de4ec9bd98189a *paf2007-11-09-18.flac
69c5b774a531e1761b2b861eb3e3e871 *paf2007-11-09-19.flac
d5600a84f9df339ef08a9e7293b63fbb *paf2007-11-09-20.flac
cb3cfb27f59c94dfc31c8814f38d81f9 *paf2007-11-09-21.flac
ab1e5a3b108dcff333b76ed2242b2763 *paf2007-11-09-22.flac
a574105b126464d899389a6a98566fe9 *paf2007-11-09-23.flac
f38839b3f02e7be8144c5abf62bb767f *paf2007-11-09-24.flac
de5bc046cd5c783845ed689988f2d6df *paf2007-11-09-25.flac
ffp
paf2007-11-09-01.flac:b69b9d3fe2c933d3e6123c517f079118
paf2007-11-09-02.flac:6e8176c455ab657200516d31832ef863
paf2007-11-09-03.flac:1c24eccfefdbda086cf1397675a3eddf
paf2007-11-09-04.flac:d241b115c8742d5955c9cb38ff124956
paf2007-11-09-05.flac:311d663ef17bc4b0b5dbd8dcced47dc5
paf2007-11-09-06.flac:b2e784a9efff22c305d0fc31ab2b93e8
paf2007-11-09-07.flac:f92da5190f32538d85db7868e5abbda2
paf2007-11-09-08.flac:699898f91605969edfe80b18f740f9a7
paf2007-11-09-09.flac:31066b9d9f90224c78e8a67e9bdec9c2
paf2007-11-09-10.flac:8482436088284d21dfee9419414489e9
paf2007-11-09-11.flac:cf1b5c7545fe4d7dc329b378106f7d68
paf2007-11-09-12.flac:387e730162ea6de3c0299b8bad7cdccb
paf2007-11-09-13.flac:40197cb29734c0db496c87a8a6561ec1
paf2007-11-09-14.flac:991dd6b05c9d711186b3eae6848cf556
paf2007-11-09-15.flac:b76883dfba734e9c192f3b6a876f7e9d
paf2007-11-09-16.flac:68066260aa3165e7fe7af629e5c67940
paf2007-11-09-17.flac:980c3289514d4f2657097ba37e0464cf
paf2007-11-09-18.flac:841e92255f7653ce7ee06496b2f74c09
paf2007-11-09-19.flac:d19f1943b60c009614a0b5633bd54e06
paf2007-11-09-20.flac:63c7fdd62752981703d2216c3d10ef40
paf2007-11-09-21.flac:a01bef95a3f0b0faca27781e0d627862
paf2007-11-09-22.flac:b033831f4d9bd394b79e0cde1ee055af
paf2007-11-09-23.flac:a27a34e407d3cdc61f7cc0c7ff110731
paf2007-11-09-24.flac:2b389400fca88e2556a39a2bcc476281
paf2007-11-09-25.flac:6e5e5134101a55f98164963a2d98cb0b

Comments
Add Comment
Other Sources (comments)
Nak 100 > Sony SBM-1 > Sony... (0) FREE SOUNDBOARD (0) THIS SOUNDBOARD IS **FREE**... (0) Recut with CDWvve and added... (0)
Date User Comment