Browse Collections Artists Sources   Search Dates

Add Show    List Management    Help


North Mississippi Allstars 12/19/14
Buckhead Theatre, Atlanta, GA
Comments Add Comment    Source Collectors    Add to Collection    Add to Want List    History
Source # 132094 Other Sources
Entered by vanark
Checksums ffp
Disc Counts 0 / 0
Media Size
Date Circulated
Date Added
12/20/2014
12/20/2014
Source Summary flac16: AKG c480b/ck61 (approx din, rob, just lh of dfc, 8\') > V3 (24/96) > sd722 
  Archive
Source Information - Download Text | Download Zip
North Mississippi Allstars
2014-12-19
The Buckhead Theatre, Atlanta, Ga.

Source: AKG c480b/ck61 (approx din, rob, just lh of dfc, 8')>V3 (24/96)>sd722
Transfer: firewire>wavelab 6.10 [Crystal Resampler (downsample) iZotope Ozone 4 (dither)]>CDWav (splits)>FLACFrontend level 6>foobar2000 (tagging)
taped and transferred by John Barren
A Team Dirty South Recording
Home Team

01. Jam>
02. Shake 'Em on Down
03. Shimmy She Wobble> Station Blues (Sittin´┐Ż On Top of the World)
04. Mean Ol' Wind Died Down
05. Eagle Bird
06. Goin' Down South
07. My Lifes a Wreck
08. Psychedelic Sex Machine*>
09. Fire Water*
10. Up Over Yonder*
11. Back Back Train
12. Rollin' And Tumbin'
13. K.C. Jones (On the Road Again)
14. Never In All My Days>
15. Preachin´┐Ż Blues (Up Jumped the Devil)
16. Chevrolet
17. Little Sally Walker
18. Granny Does Your Dog Bite (w/fife & drum march through audience)
19. Georgia Women> Po Black Maddie> Skinny Woman>
20. Ho Down (Capricorn Briarpatch)
21. encore break
22. Let it Roll
23. Mississippi Bollweevil
24. Lord Have Mercy>
25. Shake
26. All Night Long
27. Snake Drive> Mississippi Party> Snake Drive
28. And We Bid You Goodnight
29. house music

* With Megan Lovell Of Larkin Poe On Lap Steel

Luther Dickinson - Guitar, Bass, Bass Drum and Vocals
Cody Dickinson - Drums, Washboard, Keyboards, and Vocals
Lightnin' Malcom - Bass, Guitar, Drums, and Vocals
Shard'e Thomas - Cane Fife, Keyboards, Drums, and Vocals

Shntool 3.0.2
        length     expanded size    cdr  WAVE problems  fmt   ratio  filename
     2:12.20       23331884 B   ---   --   ---xx   flac  0.5108  nma2014-12-19t01.flac
     4:56.00       52214444 B   ---   --   ---xx   flac  0.5507  nma2014-12-19t02.flac
     4:09.04       43933052 B   ---   --   ---xx   flac  0.5302  nma2014-12-19t03.flac
     6:37.48       70143740 B   ---   --   ---xx   flac  0.5201  nma2014-12-19t04.flac
     2:00.20       21215084 B   ---   --   ---xx   flac  0.5361  nma2014-12-19t05.flac
     5:37.53       59571500 B   ---   --   ---xx   flac  0.4931  nma2014-12-19t06.flac
     3:50.19       40616732 B   ---   --   ---xx   flac  0.5032  nma2014-12-19t07.flac
     2:48.01       29637596 B   ---   --   ---xx   flac  0.4667  nma2014-12-19t08.flac
     4:02.03       42695900 B   ---   --   ---xx   flac  0.5037  nma2014-12-19t09.flac
     5:49.66       61718876 B   ---   --   ---xx   flac  0.5036  nma2014-12-19t10.flac
     4:24.51       46689596 B   ---   --   ---xx   flac  0.4906  nma2014-12-19t11.flac
     3:27.63       36663020 B   ---   --   ---xx   flac  0.5117  nma2014-12-19t12.flac
     4:53.41       51781676 B   ---   --   ---xx   flac  0.4702  nma2014-12-19t13.flac
     5:47.60       61351964 B   ---   --   ---xx   flac  0.4631  nma2014-12-19t14.flac
     4:35.56       48641756 B   ---   --   ---xx   flac  0.5348  nma2014-12-19t15.flac
     3:20.70       35444684 B   ---   --   ---xx   flac  0.4953  nma2014-12-19t16.flac
     4:54.57       51995708 B   ---   --   ---xx   flac  0.4667  nma2014-12-19t17.flac
     5:24.16       57191276 B   ---   --   ---xx   flac  0.4900  nma2014-12-19t18.flac
     9:12.25       97431644 B   ---   --   ---xx   flac  0.5080  nma2014-12-19t19.flac
     2:55.48       30982940 B   ---   --   ---xx   flac  0.5360  nma2014-12-19t20.flac
     3:43.62       39483068 B   ---   --   ---xx   flac  0.4489  nma2014-12-19t21.flac
     5:27.15       57718124 B   ---   --   ---xx   flac  0.4674  nma2014-12-19t22.flac
     6:01.00       63680444 B   ---   --   ---xx   flac  0.5197  nma2014-12-19t23.flac
     4:05.40       43312124 B   ---   --   ---xx   flac  0.5120  nma2014-12-19t24.flac
     5:01.61       53239916 B   ---   --   ---xx   flac  0.5361  nma2014-12-19t25.flac
    10:00.34      105920012 B   ---   --   ---xx   flac  0.5001  nma2014-12-19t26.flac
     2:55.54       30997052 B   ---   --   ---xx   flac  0.5282  nma2014-12-19t27.flac
     6:01.23       63734540 B   ---   --   ---xx   flac  0.4270  nma2014-12-19t28.flac
     0:30.22        5343788 B   ---   --   ---xx   flac  0.4459  nma2014-12-19t29.flac
   134:47.57     1426682140 B                            0.4990  (29 files)


Show Checksums
ffp
nma2014-12-19t01.flac:347bf36df557a492c8c7a63a69dc4188
nma2014-12-19t02.flac:952081fd4f3aced4f0496b84a16911e5
nma2014-12-19t03.flac:9a35925aae9ac0dad777051cf551daba
nma2014-12-19t04.flac:7e95d95987853cac18b45c662941b94a
nma2014-12-19t05.flac:8897fcb1d7665f75716d2e145cdaf2f5
nma2014-12-19t06.flac:3e6c2a1057bf5b9a389c33186c3e921b
nma2014-12-19t07.flac:00c900e9fd9403178c6a00a33085a0f1
nma2014-12-19t08.flac:035c40eddd868cf3ef7944aae0d512a3
nma2014-12-19t09.flac:ef2f17d400e2179c88c8881381bd5b41
nma2014-12-19t10.flac:692a7240258f7c69a358453e9cc7890e
nma2014-12-19t11.flac:f08f05859cf981e9d6e9ad8aa4e38d2d
nma2014-12-19t12.flac:859f2d04c1f8a3ef708568bc5c831e46
nma2014-12-19t13.flac:ce79e901fbe7fa15f530b349bfe95395
nma2014-12-19t14.flac:5b45cb09bee7e825608e4e2dc6a57b30
nma2014-12-19t15.flac:5eeb0dda4edf2462a5f7a974bbbe4035
nma2014-12-19t16.flac:83734ef0635b521d454956b8ec3a543f
nma2014-12-19t17.flac:60873c07ebc669d3b2426ba92f05ef0d
nma2014-12-19t18.flac:b64408564f30a4e891d3b4a0b3227ebe
nma2014-12-19t19.flac:1883eb38f9a7be60a80dd7ad347a2f16
nma2014-12-19t20.flac:bc8202afa7fd7d557bff318a7ebca9ea
nma2014-12-19t21.flac:cbcfb6f0fbad330647da39ea3ce7555f
nma2014-12-19t22.flac:34ea88f3d78fb1c6b112a848623d8e2e
nma2014-12-19t23.flac:d15e13c2079528eff04dc7d8ce82df70
nma2014-12-19t24.flac:55901c1befda1b06e75891fca0108894
nma2014-12-19t25.flac:78676b7a4352ff16174f53b4d5ea603d
nma2014-12-19t26.flac:c58ee181bbf179e322dd6f57cc06457a
nma2014-12-19t27.flac:90479a866086859a6d556e2aab5c2721
nma2014-12-19t28.flac:b9bf5499e978f2a20984a7aa64d02371
nma2014-12-19t29.flac:094ab36b2c62feb111bfc0ee9cb9b4b5

Comments
Add Comment
Other Sources (comments)
flac16: Schoeps... (0) flac16: Neumann... (0) flac16: Zoom H2N (XY... (0)
Date User Comment