Browse Collections Artists Sources   Search Dates

Add Show    List Management    Help


Medeski Martin & Wood 04/05/14
Cully Jazz, Chapiteau, Switzerland
Comments Add Comment    Source Collectors    Add to Collection    Add to Want List    History
Source # 132172 Other Sources
Entered by duggy
Checksums mp2-md5-orig
Disc Counts 0 / 0
Media Size Compressed: 137.87 MB (144569935 bytes)
Date Circulated
Date Added
05/25/2014
01/02/2015
Source Summary mp2; Source: Radio Espace 2, Hotbird DVB MP2 @ 256kbps ; Lineage: Hauppauge WinTV-HVR-4400-HD internal card > MPEG TS Video > Total Video Converter > MP2 256kbps/48kHz > MP3DirectCut edits 
Source Information - Download Text | Download Zip
Medeski Martin & Wood + Nels Cline
Cully Chapiteau (Cully Jazz 2014), Cully, Switzerland
Saturday, April 5, 2014

- One Set -
01.  [00:04] - 'Intro'
02.  [21:55] - Improv > Improv [@3:51] > Improv [@10:14] > Improv [@15:03] > Drum Outro >
03.  [00:06] - 'Radio announcer' >
04.  [18:37] - Improv > Drum Intro [@7:05] > Improv [@7:40] > Open Improv [@16:06] >
05.  [00:07] - 'Radio announcer' >
06.  [24:37] - Improv > Improv [@13:09] > Improv* [@18:14]
07.  [00:45] - 'Billy Speaks / Radio announcer'
- Encore -
08.  [07:49] - Improv^
09.  [01:18] - 'Outro'

* final minute gets REAL HEAVY! (dug)
^ presumably the show's Encore

Running Time - 75:17 minutes

The first three improvisations are virtually continuous, but the radio station announcer cuts-in to remind listeners what is being broadcast, so I have split the tracks at his comments. Billy Martin says good-night after the third improvisation, so I presume the final piece is an encore.


John Medeski - piano, organ
Chris Wood - bass
Billy Martin - drums
Nels Cline - guitar


Radio Espace 2
Hotbird DVB MP2 @ 256kbps
23 May 2014

Lineage:
Hauppauge WinTV-HVR-4400-HD internal card > MPEG TS Video > Total Video Converter > MP2 256kbps/48kHz > MP3DirectCut edits

This is a digital satellite radio broadcast, captured on an internal TV card. Hauppauge records DVB in MPEG TS video format. I have used TVC to extract the MP2 audio track, retaining the original audio broadcast codec. MP3 Direct Cut was used to edit the complete broadcast.



foobar2000 1.1.10 / Dynamic Range Meter 1.1.1
log date: 2014-05-25 08:00:42

--------------------------------------------------------------------------------
Analyzed: Medeski, Martin & Wood + Nels Cline / Cully Chapiteau
--------------------------------------------------------------------------------

DR         Peak         RMS     Duration Track
--------------------------------------------------------------------------------
DR18      -6.50 dB   -24.42 dB      0:04 01-intro
DR10      -5.95 dB   -17.50 dB     21:55 02-Improvisation 1
DR15      -6.28 dB   -21.11 dB      0:06 03-comments
DR11      -5.87 dB   -17.84 dB     18:37 04-Improvisation 2
DR14      -6.47 dB   -20.42 dB      0:07 05-comments
DR10      -5.78 dB   -17.88 dB     24:37 06-Improvisation 3
DR11      -6.35 dB   -20.31 dB      0:45 07-comments
DR11      -6.00 dB   -18.88 dB      7:49 08-Improvisation 4
DR12      -6.03 dB   -20.08 dB      1:18 09-outro
--------------------------------------------------------------------------------

Number of tracks:  9
Official DR value: DR12

Samplerate:        48000 Hz
Channels:          2
Bitrate:           256 kbps
Codec:             MP2


Show Checksums
mp2-md5-orig
230f843b57d4a00559d3578d3ddfb6ff *MMW & Cline 2014-04-05 t01.mp2
0dc636bd9888ffdc6e173690177144d2 *MMW & Cline 2014-04-05 t02.mp2
5454c6d10801d5537cda66f2a6cd30dc *MMW & Cline 2014-04-05 t03.mp2
10fd014f8a0455f235c146fa4a317979 *MMW & Cline 2014-04-05 t04.mp2
ad1597b1e839a1c67002b4be4163750a *MMW & Cline 2014-04-05 t05.mp2
f8b8be199eb265835735071d410f3cdf *MMW & Cline 2014-04-05 t06.mp2
454ad5dc4656f3a8cb33877c044850b7 *MMW & Cline 2014-04-05 t07.mp2
5cc43199af448eb26b8217fdd68c8672 *MMW & Cline 2014-04-05 t08.mp2
fa6b9a0344e27cde8d41547fb0201ea4 *MMW & Cline 2014-04-05 t09.mp2

Comments
Add Comment
Date User Comment