Browse Collections Artists Sources   Search Dates

Add Show    List Management    Help


Garcia 11/07/79
WMMR-FM Radio Station Studio, Philadelphia, PA
Comments Add Comment    Source Collectors    Add to Collection    Add to Want List    History
Source # 132252 Other Sources
Entered by Joe Jupille
Checksums jg1979-11-07.ffp , jg1979-11-07.md5
Disc Counts 0 / 0
Media Size Compressed: 143.98 MB (150973972 bytes)
Date Circulated
Date Added
01/11/2015
01/12/2015
Source Summary interview; flac1644; Jerry Garcia WMMR-FM Radio interview with Lyn Kratz & Michael Tearson at 2:30AM; TDK D90 > Nakamichi CR-5A > Edirol FA-66 > Wavelab > CD-Wave > TLH > FLAC 1644 Transferred and tagged by Andrew Faintych. 
Source Information - Download Text | Download Zip
JERRY GARCIA
WMMR Studios
Philadelphia PA
11-07-1979


WMMR-FM Radio interview with Lyn Kratz & Michael Tearson at 2:30AM

01 intro

(Good Lovin' official track edited out)

02 Brent in the band, Making Go to Heaven album

(Reuben & Cherise official track edited out)

03 Story of Reuben & Cherise, Jerry's new guitar, Acoustic shows, Bertha the fan

(Bertha official track edited out)

04 Mission in the Rain, Egypt trip, Smaller venues, GD films, Eclectic listening

(Gotta Serve Somebody official track edited out)

05 Terrapin II Suite, thanks & outro

(Terrapin Station official track edited out)

06 DJ Talk


Transfer: TDK D90 > Nakamichi CR-5A > Edirol FA-66 > Wavelab > CD-Wave > TLH > FLAC 1644 tagged.

Note: This interview occurred in the wee hours of the morning after the 11/06/79 Spectrum show.

Thanks to Poordevil and Sounddawg for this historic tape!

    length     expanded size    cdr  WAVE problems  fmt   ratio  filename
     0:57.49       10170092 B   ---   --   ---xx   flac  0.5260  jg1979-11-07t01.flac
     6:02.02       63861548 B   ---   --   ---xx   flac  0.5255  jg1979-11-07t02.flac
     7:59.16       84533276 B   ---   --   ---xx   flac  0.5436  jg1979-11-07t03.flac
     8:25.17       89122028 B   ---   --   ---xx   flac  0.5475  jg1979-11-07t04.flac
     2:17.12       24195068 B   ---   --   ---xx   flac  0.5427  jg1979-11-07t05.flac
     0:44.39        7853372 B   ---   --   ---xx   flac  0.5326  jg1979-11-07t06.flac
    26:25.60      279735384 B                            0.5397  (6 files)

No errors occured.


Show Checksums
jg1979-11-07.ffp
jg1979-11-07t01.flac:15e532f27da3deefa6391732bfed682a
jg1979-11-07t02.flac:8532860c1e69811c4e612992f6796ce7
jg1979-11-07t03.flac:be4e575d939fba6cf0dad6f4c2f19340
jg1979-11-07t04.flac:36a1ef25f3b6704b040311b82d791807
jg1979-11-07t05.flac:c547b15fc297e0aa6b5361a87d879f4f
jg1979-11-07t06.flac:75ba9f851de638876019bc6879efe32e
jg1979-11-07.md5
bb2317cb873c8898bf13c0337aee932c *jg1979-11-07t01.flac
38d369e40dd0d1521d5ae50e69ecf7ac *jg1979-11-07t02.flac
1d3195afe11d17f25495910d6d12fac1 *jg1979-11-07t03.flac
2950149f265b5127d7245222029d0132 *jg1979-11-07t04.flac
861b150e52de24fcd23949379e75bfa4 *jg1979-11-07t05.flac
ec66db93fc32710a70443065dabd9d68 *jg1979-11-07t06.flac

Comments
Add Comment
Date User Comment