Browse Collections Artists Sources   Search Dates

Add Show    List Management    Help


Grateful Dead 11/08/79
Capital Centre, Landover, MD
Comments Add Comment    Source Collectors    Add to Collection    Add to Want List    History
Source # 132330 Other Sources
Entered by Matt Vernon
Checksums ffp , flac-md5
Disc Counts 0 / 0
Media Size Compressed: 682 MB (715128832 bytes)
Date Circulated
Date Added
01/30/2015
01/25/2015
Source Summary flac16; AUD of unknown lineage; TDK D90's (c1979) > Nakamichi CR-5A > Edirol FA-66 Wavelab 2448 > R8Brain > CD-Wave > TLH > FLAC 1644 tagged. Transfer by Andrew F 01/2015 
  Archive
Source Information - Download Text | Download Zip
GRATEFUL DEAD
Capital Centre
Landover MD
11-08-1979

xxxxx Minglewood Blues - missing
xxxxx Stagger Lee - missing
s1t01 /Mama Tried >
s1t02 Mexicali Blues
s1t03 China Cat Sunflower >
s1t04 I Know You Rider
s1t05 It's All Over Now
s1t06 Don't Ease Me In
s1t07 /Looks Like Rain >
s1t08 Deal

s2t01 crowd & tuning
s2t02 Scarlet Begonias >
s2t03 Fire on the Mountain
s2t04 crowd & tuning
s2t05 Lost Sailor >
s2t06 Saint of Circumstance > Jam/ (tape flip)
s2t07 Jam (continued) >
s2t08 Drums >
s2t09 Space >
s2t10 Not Fade Away >
s2t11 Morning Dew
s2t12 crowd & tuning
s2t13 Encore: Johnny B. Goode

Source: AUD of unknown lineage, kindly provided by Sounddawg & poordevil.

Tranfer: TDK D90's (c1979) > Nakamichi CR-5A > Edirol FA-66 Wavelab 2448 >
R8Brain > CD-Wave > TLH > FLAC 1644 tagged. Transfer by Andrew F 01/2015.

Notes: Start of Mama Tried & LLRain slightly clipped. Loose mic cable in the
right channel caused static & dropouts; a few brief spots in Jam & Space, and
from Sailor 5:53 to Saint 0:51. Left was pasted-in over right for those.

    length     expanded size    cdr  WAVE problems  fmt   ratio  filename
     2:36.00       27518444 B   ---   --   ---xx   flac  0.5204  gd1979-11-08s1t01.flac
     4:37.12       48891068 B   ---   --   ---xx   flac  0.5278  gd1979-11-08s1t02.flac
     7:38.48       80904140 B   ---   --   ---xx   flac  0.5242  gd1979-11-08s1t03.flac
     6:34.51       69621596 B   ---   --   ---xx   flac  0.5259  gd1979-11-08s1t04.flac
     8:56.62       94696268 B   ---   --   ---xx   flac  0.5221  gd1979-11-08s1t05.flac
     3:57.37       41893868 B   ---   --   ---xx   flac  0.5135  gd1979-11-08s1t06.flac
     7:48.23       82609340 B   ---   --   ---xx   flac  0.5038  gd1979-11-08s1t07.flac
     5:33.28       58807100 B   ---   --   ---xx   flac  0.5159  gd1979-11-08s1t08.flac
     1:20.31       14184956 B   ---   --   ---xx   flac  0.4925  gd1979-11-08s2t01.flac
    10:54.47      115476188 B   ---   --   ---xx   flac  0.5213  gd1979-11-08s2t02.flac
    13:12.10      139732364 B   ---   --   ---xx   flac  0.4984  gd1979-11-08s2t03.flac
     3:35.22       37977788 B   ---   --   ---xx   flac  0.4577  gd1979-11-08s2t04.flac
     6:22.03       67391900 B   ---   --   ---xx   flac  0.4802  gd1979-11-08s2t05.flac
     6:16.45       66432284 B   ---   --   ---xx   flac  0.4786  gd1979-11-08s2t06.flac
     6:08.10       64938764 B   ---   --   ---xx   flac  0.4792  gd1979-11-08s2t07.flac
     8:21.01       88378796 B   ---   --   ---xx   flac  0.5002  gd1979-11-08s2t08.flac
     4:06.16       43432076 B   ---   --   ---xx   flac  0.4910  gd1979-11-08s2t09.flac
     9:04.10       95985164 B   ---   --   ---xx   flac  0.5150  gd1979-11-08s2t10.flac
    10:17.66      108994076 B   ---   --   ---xx   flac  0.5127  gd1979-11-08s2t11.flac
     0:54.23        9579740 B   ---   --   ---xx   flac  0.4971  gd1979-11-08s2t12.flac
     4:58.56       52698956 B   ---   --   ---xx   flac  0.5344  gd1979-11-08s2t13.flac
   133:14.01     1410144876 B                            0.5073  (21 files)

No errors occured.



Show Checksums
ffp
gd1979-11-08s1t01.flac:d0a1ec0d1764bed8785447a05450df5a
gd1979-11-08s1t02.flac:b1903f600cd7066b56ed9e81441332bb
gd1979-11-08s1t03.flac:ace8e6f4e363b984f86181bae4bca389
gd1979-11-08s1t04.flac:b4a202ee14637df0bee291c8bd035191
gd1979-11-08s1t05.flac:402d8f69696f9b2c5583859953eb6915
gd1979-11-08s1t06.flac:a7c6d7b4010a10278cb747555eba7a0d
gd1979-11-08s1t07.flac:528a56d2e4be71cab203c8d198efad69
gd1979-11-08s1t08.flac:054fdceb263f423b98b23cd0c20a9497
gd1979-11-08s2t01.flac:09a0b60056e3d22bbdd9a6b9fed5f7bc
gd1979-11-08s2t02.flac:dbfe6f33527d5753834ead07ebfed507
gd1979-11-08s2t03.flac:4408a0c7870ebced6ce8c74c27fad2a6
gd1979-11-08s2t04.flac:72c9860bd38245af3c7c75ce4364b3cb
gd1979-11-08s2t05.flac:30de157c57cc3d3133dfdbc82cf99705
gd1979-11-08s2t06.flac:df519c29b847eb90f9253dcd22a5bebb
gd1979-11-08s2t07.flac:1a9064adc769ea9a8124477918120119
gd1979-11-08s2t08.flac:4aeedf314563a9f7400f43ae72a8495f
gd1979-11-08s2t09.flac:806d5932b1c645555c1c145f7340490c
gd1979-11-08s2t10.flac:e3191b65f133c51ac1b9b7a345968265
gd1979-11-08s2t11.flac:ffb6ecdb9399c7b7d3f460362192ecda
gd1979-11-08s2t12.flac:afb6bdc93c24f00ae2fa18912b7b202c
gd1979-11-08s2t13.flac:f48e6060cf0a2f20658b095bb67753d2
flac-md5
5623eed2a8601fd35bb004ed677b0d7f *gd1979-11-08s1t01.flac
e298875bf1d540cebb016e9f7ff40f5c *gd1979-11-08s1t02.flac
9cbda91cda4a049082b43fef6312cf39 *gd1979-11-08s1t03.flac
c8987d70b521aa067032be8b2a2c4747 *gd1979-11-08s1t04.flac
d88664b05d312d80b76b5c36f1409d6d *gd1979-11-08s1t05.flac
a40636a035d68a00e9daa9587c6a14c5 *gd1979-11-08s1t06.flac
79545c55e2bfae6f12a199481e4fd8f3 *gd1979-11-08s1t07.flac
4becd5d9894665242e89fc12de36edce *gd1979-11-08s1t08.flac
7d8447965bca7daf6bbe42cd1caa3975 *gd1979-11-08s2t01.flac
155d0862956a32739fbc2799976f920a *gd1979-11-08s2t02.flac
84950fa5af213ad870b4687d2e1e38e6 *gd1979-11-08s2t03.flac
32320d44c594a905dc6c2a8567df5963 *gd1979-11-08s2t04.flac
3c7f02b50c89d10dc7fd9870c6e04254 *gd1979-11-08s2t05.flac
182978c3d4bc104142f14c9262cb8b91 *gd1979-11-08s2t06.flac
994448416033cf78a4c3f4da87b852d6 *gd1979-11-08s2t07.flac
3f0a4c64f43b979b14c279a8d22ca1bb *gd1979-11-08s2t08.flac
b406f12544ccb5435da0717ecf3a0c1f *gd1979-11-08s2t09.flac
f56f33f8fbb49a4e4b8a97341c9ba974 *gd1979-11-08s2t10.flac
20d0e8bd20a66710fc91676ef0faedb6 *gd1979-11-08s2t11.flac
1b0e0527e0bc06a7c04c66311a7d243b *gd1979-11-08s2t12.flac
c3445714c3cc4858f906e19d669af4d5 *gd1979-11-08s2t13.flac

Comments
Add Comment
Other Sources (comments)
set 2; updated source: SBD>... (6) set 1; updated source:... (3) retracked version of (3) This shn set combines into... (7) flac16; Recording... (0) flac16; mac > hd or... (2)
Date User Comment
01/30/2015 1478 Mics are believed to have been hand held.