Browse Collections Artists Sources   Search Dates

Add Show    List Management    Help


Grateful Dead 09/30/80
Warfield Theater, San Francisco, CA
Comments Add Comment    Source Collectors    Add to Collection    Add to Want List    History
Source # 132375 Other Sources
Entered by Matt Vernon
Checksums ffp , flac-md5
Disc Counts 0 / 0
Media Size Compressed: 1.12 GB (1202376817 bytes)
Uncompressed: 2.02 GB (2173715060 bytes)
Date Circulated
Date Added
02/02/2015
02/02/2015
Source Summary flac16; Recording Info: SBD -> Cassette Master -> FLAC; Transfer Info: FLAC -> Adobe Audition v5.5 -> Samplitude Pro X2 Suite -> FLAC; All Transfers and Mastering By Charlie Miller 
  Archive
Source Information - Download Text | Download Zip
Grateful Dead - September 30, 1980
Warfield Theatre - San Francisco, CA

Recording Info:
SBD -> Cassette Master -> FLAC

Transfer Info:
FLAC -> Adobe Audition v5.5 -> Samplitude Pro X2 Suite -> FLAC
(3 Discs Audio / 1 DVD FLAC)

All Transfers and Mastering By Charlie Miller
[email protected]
February 1, 2015

Audience Patches:
Estimated Prophet (7:40 - 8:05)
Black Peter (9:10 - end of track)
Good Lovin' (0:00 - 0:06)

Notes:
-- All disc changes are seamless
-- Thanks to those who worked on this before me
-- Thanks to Joe B. Jones for his help with the pitch correction

Set 1:
d1t01 - On The Road Again
d1t02 - Jack-A-Roe
d1t03 - Monkey And The Engineer
d1t04 - Bird Song
d1t05 - Dark Hollow
d1t06 - Rosalie McFall
d1t07 - Heaven Help The Fool
d1t08 - China Doll
d1t09 - Oh Babe It Ain't No Lie ->
d1t10 - Ripple

Set 2:
d1t11 - Alabama Getaway ->
d1t12 - Promised Land
d1t13 - Peggy-O
d1t14 - Beat It On Down The Line
d1t15 - Friend Of The Devil
d2t01 - Lazy Lightnin' ->
d2t02 - Supplication
d2t03 - Loser
d2t04 - Little Red Rooster
d2t05 - Big Railroad Blues

Set 3:
d2t06 - Feel Like A Stranger ->
d2t07 - Franklin's Tower
d2t08 - Samson And Delilah
d3t01 - He's Gone ->
d3t02 - Estimated Prophet ->
d3t03 - Drums ->
d3t04 - Space ->
d3t05 - The Other One ->
d3t06 - Black Peter ->
d3t07 - Good Lovin'

Encore:
d3t08 - Brokedown Palace


SHNTOOL OUTPUT:
   length     expanded size    cdr  WAVE problems  fmt   ratio  filename
    3:59.15       42194924 B   ---   --   ---xx   flac  0.5688  gd80-09-30d1t01.flac
    4:35.28       48575900 B   ---   --   ---xx   flac  0.6076  gd80-09-30d1t02.flac
    2:28.05       26119004 B   ---   --   ---xx   flac  0.5919  gd80-09-30d1t03.flac
    7:59.44       84599132 B   ---   --   ---xx   flac  0.5646  gd80-09-30d1t04.flac
    3:59.35       42241964 B   ---   --   ---xx   flac  0.5987  gd80-09-30d1t05.flac
    2:50.61       30131516 B   ---   --   ---xx   flac  0.6146  gd80-09-30d1t06.flac
    6:00.19       63548732 B   ---   --   ---xx   flac  0.5787  gd80-09-30d1t07.flac
    5:01.06       53110556 B   ---   --   ---xx   flac  0.5451  gd80-09-30d1t08.flac
    6:25.45       68019884 B   ---   --   ---xx   flac  0.5942  gd80-09-30d1t09.flac
    4:42.26       49805996 B   ---   --   ---xx   flac  0.5775  gd80-09-30d1t10.flac
    4:13.70       44793884 B   ---   --   ---xx   flac  0.5686  gd80-09-30d1t11.flac
    4:15.54       45109052 B   ---   --   ---xx   flac  0.5807  gd80-09-30d1t12.flac
    6:24.27       67801148 B   ---   --   ---xx   flac  0.5728  gd80-09-30d1t13.flac
    3:30.56       37175756 B   ---   --   ---xx   flac  0.6029  gd80-09-30d1t14.flac
    9:05.31       96210956 B   ---   --   ---xx   flac  0.5231  gd80-09-30d1t15.flac
    3:29.00       36867644 B   ---   --   ---xx   flac  0.5733  gd80-09-30d2t01.flac
    7:47.39       82470572 B   ---   --   ---xx   flac  0.5529  gd80-09-30d2t02.flac
    7:37.44       80718332 B   ---   --   ---xx   flac  0.5230  gd80-09-30d2t03.flac
    8:06.67       85888028 B   ---   --   ---xx   flac  0.5585  gd80-09-30d2t04.flac
    3:51.30       40819004 B   ---   --   ---xx   flac  0.5800  gd80-09-30d2t05.flac
    9:13.11       97575116 B   ---   --   ---xx   flac  0.5839  gd80-09-30d2t06.flac
    7:34.08       80104460 B   ---   --   ---xx   flac  0.5650  gd80-09-30d2t07.flac
    7:45.64       82176572 B   ---   --   ---xx   flac  0.5762  gd80-09-30d2t08.flac
   11:28.50      121480844 B   ---   --   ---xx   flac  0.5384  gd80-09-30d3t01.flac
   11:00.17      116464028 B   ---   --   ---xx   flac  0.5547  gd80-09-30d3t02.flac
   12:51.64      136154972 B   ---   --   ---xx   flac  0.4770  gd80-09-30d3t03.flac
    9:41.45      102594284 B   ---   --   ---xx   flac  0.4796  gd80-09-30d3t04.flac
    6:10.62       65413868 B   ---   --   ---xx   flac  0.5537  gd80-09-30d3t05.flac
    9:14.61       97869116 B   ---   --   ---xx   flac  0.5212  gd80-09-30d3t06.flac
    8:23.47       88839788 B   ---   --   ---xx   flac  0.5674  gd80-09-30d3t07.flac
    5:33.42       58840028 B   ---   --   ---xx   flac  0.5388  gd80-09-30d3t08.flac
  205:22.48     2173715060 B                            0.5531  (31 files)


Show Checksums
ffp
gd80-09-30d1t01.flac:c0864ff8bff93ea68d427d952cc863d4
gd80-09-30d1t02.flac:ad2dc674a9ae37d7bced17bc42972db0
gd80-09-30d1t03.flac:f04634d597cddae751fadf753586f990
gd80-09-30d1t04.flac:dae4c2f95e3b2f9b451d72b55f21fae6
gd80-09-30d1t05.flac:d3fb2e91ff749da659ae9efab450bc03
gd80-09-30d1t06.flac:b45d19d1ddffd8c043cff45db0f0f842
gd80-09-30d1t07.flac:3fb3553ab9593946c9c5936c92ce41d4
gd80-09-30d1t08.flac:95ccf780c5b59944554847ed2d234737
gd80-09-30d1t09.flac:49561f6e15198d3cf643b9dfd3d27198
gd80-09-30d1t10.flac:8f33c810f2430aa0ebb9356b4c6df269
gd80-09-30d1t11.flac:8b358f2c602987f5fcaa99fa7a082d63
gd80-09-30d1t12.flac:7c21255e721f5673e9e31ae472e7057b
gd80-09-30d1t13.flac:9246f26ccac04a48583e6e1791ae991c
gd80-09-30d1t14.flac:b5e16f37562a4bb3f840740130092086
gd80-09-30d1t15.flac:dc42dd6aab1fb41f018b40994406f677
gd80-09-30d2t01.flac:3c12b5b0513d46605a9932d664875abe
gd80-09-30d2t02.flac:c7856dca9bc9f447d0fca72f6b8f316a
gd80-09-30d2t03.flac:b713ca79e1e4ad1ca4f6eaefa9b18fb1
gd80-09-30d2t04.flac:11433c698b5cf8506ef5234a40579b2b
gd80-09-30d2t05.flac:c751aca632dc620725c4f30b15a46639
gd80-09-30d2t06.flac:0f82a98204851f5100c0688b343ba496
gd80-09-30d2t07.flac:60cd42cfe0767d5d0003b3c138a65064
gd80-09-30d2t08.flac:3242abedd4135bcaf109014d6822dd86
gd80-09-30d3t01.flac:9363c4190f3ba327007cb64cc19cc2eb
gd80-09-30d3t02.flac:1cf7f21b0ad3b67c342d366662ca36cd
gd80-09-30d3t03.flac:218b9674d2e7be4edcc76cefa2a0596d
gd80-09-30d3t04.flac:17f6aa0fe3de82543b7d1393daf71235
gd80-09-30d3t05.flac:aa60725cfb3910f6b67f5b7dda4db66e
gd80-09-30d3t06.flac:3bc0d37e827020b9ed9ee04942ff33e5
gd80-09-30d3t07.flac:156eec6de0a7b9afb27adea7ca367475
gd80-09-30d3t08.flac:c6fdb04957cd90b51181aca351b57f47
flac-md5
9296cc57bf3ee4d60c4f52d500d05c99 *gd80-09-30d1t01.flac
3fa3ba75c878858c3ad521a72a6b5235 *gd80-09-30d1t02.flac
e31fc790041ee7aa486242eb6711f1c5 *gd80-09-30d1t03.flac
92ec085eabdad60bf8b0b16cf0ce7e97 *gd80-09-30d1t04.flac
741718681ab1be86dda68758226815db *gd80-09-30d1t05.flac
3bc9012ecbc493d82b9fce59572bfa01 *gd80-09-30d1t06.flac
cfa92c1f008e67ce72fade480318d040 *gd80-09-30d1t07.flac
188eb65aca7e0ce55f098cf0426fe596 *gd80-09-30d1t08.flac
b56f1554e6b1241380b0cc4492405326 *gd80-09-30d1t09.flac
48fb5f34e87a64709ed980513a8dc9dc *gd80-09-30d1t10.flac
f68ae4b2fe7e5205d661a766d8edc1f3 *gd80-09-30d1t11.flac
58acde2315bbc04dff6df567f4ab48a0 *gd80-09-30d1t12.flac
2de281a1b36ab1a5537f7aba4bdcac33 *gd80-09-30d1t13.flac
d7c91290c4b639fb7cfdb4c178fb58c3 *gd80-09-30d1t14.flac
d7a41c2289bff647785093d3bd0be337 *gd80-09-30d1t15.flac
2126c9b0e95fac43295f8420eac57e4b *gd80-09-30d2t01.flac
8e440340bebc1b9f0268ccfb4a8ff14e *gd80-09-30d2t02.flac
38a8baf85f76a6d6d1a8347d697e6d0e *gd80-09-30d2t03.flac
f680c82e7c87b759defa9820604ebcce *gd80-09-30d2t04.flac
0d429d8eef3e3e7f40c19b1ce38e87ce *gd80-09-30d2t05.flac
724934429cbd4638290a71c57c371138 *gd80-09-30d2t06.flac
b2236d83783c945227c6142177ddf58f *gd80-09-30d2t07.flac
37f22dd2362a0dbe1a1dc4c260c35363 *gd80-09-30d2t08.flac
27f5e47d542a83d3246bdcd1f18d595b *gd80-09-30d3t01.flac
e968b2b2956fd19b97b0cab7de5091bf *gd80-09-30d3t02.flac
1ae4397acb2d0f01c5a9a46643151752 *gd80-09-30d3t03.flac
7c2912a73852885c2da15c77f7c1aab0 *gd80-09-30d3t04.flac
b5a0016836c6d039f9d41c1e006722ff *gd80-09-30d3t05.flac
cba826401f84305cdba213802b9b9f75 *gd80-09-30d3t06.flac
f8b372928e4aad8c3b73f5f75ec126ec *gd80-09-30d3t07.flac
cf57bf0f6c19d4d481ac9c7485436396 *gd80-09-30d3t08.flac

Comments
Add Comment
Other Sources (comments)
Source: Recording... (0) flac16; Recording by... (0) flac16; Acoustic Set... (0) flac16; 2 source... (0)
Date User Comment