Browse Collections Artists Sources   Search Dates

Add Show    List Management    Help


Phish 08/16/96
Plattsburgh Air Force Base, Plattsburgh, NY
Comments Add Comment    Source Collectors    Add to Collection    Add to Want List    History
Source # 132387 Other Sources
Entered by Jason Sobel
Checksums 48kHz-FFP
Disc Counts 0 / 0
Media Size Compressed: 1.14 GB (1229241172 bytes)
Date Circulated
Date Added
02/04/2015
02/04/2015
Source Summary flac16, 48kHz; B&K 4021 > EAA PSP-2 > Tascam DA-P1 > Tascam DA-P1 (@ 48 kHz); Tascam DA-20mkII > Marantz PMD-661 > SDHC card > usb 2.0 > pc > CD Wave v1.98 (track splits) > Samplitude SE v9.1.1 (fades) > FLAC v1.3.1 (Level 8); Taped by Eric Vandercar; Patch-taped by Lenny Stubbe; Transferred by Jason Sobel 
Source Information - Download Text | Download Zip
Phish
August 16, 1996
Plattsburgh Air Force Base
Plattsburgh, NY
The Clifford Ball, Day 1

source:
B&K 4021 > EAA PSP-2 > Tascam DA-P1 > Tascam DA-P1 (@ 48 kHz)

transfer:
Tascam DA-20mkII > Marantz PMD-661 > SDHC card > usb 2.0 > pc > CD Wave v1.98 (track splits) > Samplitude SE v9.1.1 (fades) > FLAC v1.3.1 (Level 8)

recorded by Eric Vandercar
patch-taper: Lenny Stubbe
transferred by Jason Sobel ([email protected])
seeded February 4, 2015

notes:
FLAC tags added with metaflac v1.3.1
Big thanks to Lenny for letting me borrow his DATs!
These files are from the same transfer as http://db.etree.org/shn/101557
However, these 48 kHz files are identical to the original DAT recording (while shnid 101557 was resampled to 44.1 kHz)

Set I - [85:06]
01 - [02:52] - Clifford Ball introduction
02 - [06:22] - Chalk Dust Torture
03 - [10:30] - Bathtub Gin
04 - [08:53] - Ya Mar
05 - [09:08] - AC/DC Bag
06 - [09:09] - Esther
07 - [16:48] - The Divided Sky
08 - [06:49] - Halley's Comet
09 - [14:36] - David Bowie

Set II - [92:33]
01 - [13:37] - Split Open and Melt
02 - [03:51] - Sparkle
03 - [08:46] - Free
04 - [10:47] - The Squirming Coil
05 - [05:05] - Waste *
06 - [03:50] - Talk *
07 - [03:12] - Train Song *
08 - [03:53] - Strange Design *
09 - [01:31] - Hello My Baby
10 - [15:56] - Mike's Song ->
11 - [06:04] - Simple ->
12 - [06:11] - Contact ->
13 - [09:49] - Weekapaug Groove

Set III - [61:28]
01 - [08:00] - Makisupa Policeman
02 - [06:13] - 2001 ->
03 - [15:35] - Down with Disease ->
04 - [05:19] - NICU
05 - [03:23] - Life on Mars
06 - [17:27] - Harry Hood **
07 - [02:50] - encore break
08 - [01:46] - Amazing Grace
09 - [00:55] - show outro

* acoustic mini-stage
** with fireworks

-----------------------------------------------------
shntool 3.0.4 len mode output:

    length     expanded size    cdr  WAVE problems  fmt   ratio  filename
     2:51.653      32957484 B   cxx   --   ---xx   flac  0.3689  ph1996-08-16set1t01.flac
     6:21.920      73328684 B   cxx   --   ---xx   flac  0.5124  ph1996-08-16set1t02.flac
    10:29.640     120890924 B   cxx   --   ---xx   flac  0.4516  ph1996-08-16set1t03.flac
     8:53.360     102405164 B   cxx   --   ---xx   flac  0.4462  ph1996-08-16set1t04.flac
     9:07.800     105177644 B   cxx   --   ---xx   flac  0.4836  ph1996-08-16set1t05.flac
     9:08.693     105349164 B   cxx   --   ---xx   flac  0.4295  ph1996-08-16set1t06.flac
    16:47.880     193513004 B   cxx   --   ---xx   flac  0.4369  ph1996-08-16set1t07.flac
     6:48.920      78512684 B   cxx   --   ---xx   flac  0.4547  ph1996-08-16set1t08.flac
    14:36.133     168217644 B   cxx   --   ---xx   flac  0.4494  ph1996-08-16set1t09.flac
    13:37.360     156933164 B   cxx   --   ---xx   flac  0.4778  ph1996-08-16set2t01.flac
     3:50.587      44272684 B   cxx   --   ---xx   flac  0.4696  ph1996-08-16set2t02.flac
     8:46.373     101063724 B   cxx   --   ---xx   flac  0.4807  ph1996-08-16set2t03.flac
    10:46.947     124213804 B   cxx   --   ---xx   flac  0.3884  ph1996-08-16set2t04.flac
     5:05.360      58629164 B   cxx   --   ---xx   flac  0.3581  ph1996-08-16set2t05.flac
     3:50.467      44249644 B   cxx   --   ---xx   flac  0.3420  ph1996-08-16set2t06.flac
     3:11.747      36815404 B   cxx   --   ---xx   flac  0.3240  ph1996-08-16set2t07.flac
     3:53.920      44912684 B   cxx   --   ---xx   flac  0.3663  ph1996-08-16set2t08.flac
     1:30.840      17441324 B   cxx   --   ---xx   flac  0.3520  ph1996-08-16set2t09.flac
    15:55.653     183485484 B   cxx   --   ---xx   flac  0.5056  ph1996-08-16set2t10.flac
     6:03.613      69813804 B   cxx   --   ---xx   flac  0.4969  ph1996-08-16set2t11.flac
     6:11.160      71262764 B   cxx   --   ---xx   flac  0.4172  ph1996-08-16set2t12.flac
     9:48.973     113082924 B   cxx   --   ---xx   flac  0.5004  ph1996-08-16set2t13.flac
     8:00.307      92218924 B   cxx   --   ---xx   flac  0.4098  ph1996-08-16set3t01.flac
     6:12.627      71544364 B   cxx   --   ---xx   flac  0.4660  ph1996-08-16set3t02.flac
    15:35.160     179550764 B   cxx   --   ---xx   flac  0.4815  ph1996-08-16set3t03.flac
     5:19.213      61289004 B   cxx   --   ---xx   flac  0.4410  ph1996-08-16set3t04.flac
     3:22.587      38896684 B   cxx   --   ---xx   flac  0.4391  ph1996-08-16set3t05.flac
    17:26.907     201006124 B   cxx   --   ---xx   flac  0.4266  ph1996-08-16set3t06.flac
     2:50.227      32683564 B   cxx   --   ---xx   flac  0.3465  ph1996-08-16set3t07.flac
     1:45.973      20346924 B   cxx   --   ---xx   flac  0.3639  ph1996-08-16set3t08.flac
     0:55.000      10560044 B   cxx   --   ---xx   flac  0.3874  ph1996-08-16set3t09.flac
   239:07.000    2754625364 B                            0.4462  (31 files)

Show Checksums
48kHz-FFP
ph1996-08-16set1t01.flac:c930c8fbc36ee3728a2863c7c215e74d
ph1996-08-16set1t02.flac:c1ac4ca29bcc186d0408ed3d022ebe6a
ph1996-08-16set1t03.flac:0966974799217cf17318bb410259d042
ph1996-08-16set1t04.flac:4c433f349b15680d2dc415c0089150ce
ph1996-08-16set1t05.flac:b0c18ae92913fd6377ab844ed93240fa
ph1996-08-16set1t06.flac:e969ffac8ce044ac40b8e4198adf9523
ph1996-08-16set1t07.flac:f2e8827090bcaedd09fce3393eba5010
ph1996-08-16set1t08.flac:cc2436c7aec4b15062f334a9dc3389d5
ph1996-08-16set1t09.flac:94a20d6cdefd5760a8c3fa7cdb556901
ph1996-08-16set2t01.flac:27b32dde8a952cfd4a9a06925b114d05
ph1996-08-16set2t02.flac:0c4125d952abb1a4d75a52dd118a9392
ph1996-08-16set2t03.flac:4724d3789aa1444fec7ad70ad911a12f
ph1996-08-16set2t04.flac:9949c38e39c1d768e5c19d3eb80d7004
ph1996-08-16set2t05.flac:fe446d1c1bcfc4ad962a43259795a30c
ph1996-08-16set2t06.flac:85efdf9a5004694fec64b7dce89d71b9
ph1996-08-16set2t07.flac:26073d1f38d27230abd3379f5bc4b154
ph1996-08-16set2t08.flac:1dc63e3213bb0b827afa5dcd450e36d6
ph1996-08-16set2t09.flac:10a62f44d027ac1c15a7e3def8b2358f
ph1996-08-16set2t10.flac:1b2ad1eb36fa85c756cf507996c000ef
ph1996-08-16set2t11.flac:a6b0f84e8e1804cfdac570cdf3202740
ph1996-08-16set2t12.flac:87fdf6ae99399f4f8fbe91c1d275f6bc
ph1996-08-16set2t13.flac:20dd1a939f99dde59d6764848f9ba60d
ph1996-08-16set3t01.flac:7c7c9e9d4b1c7ea638f2c51747b6f8f4
ph1996-08-16set3t02.flac:1a29c9fb8694fc8d4e8066f40073ab1a
ph1996-08-16set3t03.flac:ef16efcc7a8083b46236b024cb403b2d
ph1996-08-16set3t04.flac:2979e38994b4ac45a56e58971f18aa20
ph1996-08-16set3t05.flac:7b1da3d0d7b54003e013f7d83dfb1a33
ph1996-08-16set3t06.flac:b248380fe5256acc8a635906ab390f0b
ph1996-08-16set3t07.flac:916c6817b13e4fa4888bd15ae66b8a32
ph1996-08-16set3t08.flac:ca49f0e025c2c822b964a29bca7c6987
ph1996-08-16set3t09.flac:c8b9daefe3ee56934940a4fdd0fd101d

Comments
Add Comment
Other Sources (comments)
DSBD -> CD-R except for... (5) SBD > DAT > CDR > EAC > SHN (6) SBD > DAT; (SOAM Sources:... (1) AKG C568 EB > Aerco preamp;... (0) FOB AKG 460B/ck61 > Sonosax... (0) SBD + AUD Matrix Mix... (0) DTS 5.1 Audio CD (DSBD +... (0) (FOB) Schoeps mk4 > kc5 >... (0) B&K 4021 > EAA PSP-2 >... (0) B&K 4011s > Neumann BS48i-2... (0) flac16 48kHz Set 1 &... (0) flac16 48khz... (0)
Date User Comment