Browse Collections Artists Sources   Search Dates

Add Show    List Management    Help


Phish 08/17/96
Plattsburgh Air Force Base, Plattsburgh, NY
Comments Add Comment    Source Collectors    Add to Collection    Add to Want List    History
Source # 132388 Other Sources
Entered by Jason Sobel
Checksums 48kHz-FFP
Disc Counts 0 / 0
Media Size Compressed: 1.15 GB (1237687466 bytes)
Date Circulated
Date Added
02/04/2015
02/04/2015
Source Summary flac16, 48kHz; B&K 4021 > EAA PSP-2 > Tascam DA-P1 > Tascam DA-P1 (@ 48 kHz); Tascam DA-20mkII > Marantz PMD-661 > SDHC card > usb 2.0 > pc > CD Wave v1.98 (track splits) > Samplitude SE v9.1.1 (fades, splice) > FLAC v1.3.1 (Level 8); Taped by Eric Vandercar; Patch-taped by Lenny Stubbe; Transferred by Jason Sobel 
Source Information - Download Text | Download Zip
Phish
August 17, 1996
Plattsburgh Air Force Base
Plattsburgh, NY
The Clifford Ball, Day 2

source:
B&K 4021 > EAA PSP-2 > Tascam DA-P1 > Tascam DA-P1 (@ 48 kHz)

transfer:
Tascam DA-20mkII > Marantz PMD-661 > SDHC card > usb 2.0 > pc > CD Wave v1.98 (track splits) > Samplitude SE v9.1.1 (fades, splice) > FLAC v1.3.1 (Level 8)

recorded by Eric Vandercar
patch-taper: Lenny Stubbe
transferred by Jason Sobel ([email protected])
seeded February 4, 2015

notes:
FLAC tags added with metaflac v1.3.1
Big thanks to Lenny for letting me borrow his DATs!
These files are from the same transfer as http://db.etree.org/shn/101610
However, these 48 kHz files are identical to the original DAT recording (while shnid 101610 was resampled to 44.1 kHz)

Set I - [79:32]
01 - [03:15] - The Old Home Place
02 - [08:10] - Punch You in the Eye
03 - [16:18] - Reba
04 - [03:42] - Cars Trucks Buses
05 - [10:35] - Lizards
06 - [04:59] - Sample in a Jar
07 - [07:02] - Taste
08 - [05:51] - Fee
09 - [12:51] - Maze
10 - [06:49] - Suzy Greenberg

Set II - [77:37]
01 - [00:58] - set 2 intro
02 - [06:24] - The Curtain
03 - [12:24] - Runaway Jim
04 - [09:05] - It's Ice
05 - [06:18] - Brother *
06 - [14:41] - Fluffhead
07 - [10:16] - Run Like an Antelope
08 - [04:37] - Golgi Apparatus
09 - [12:53] - Slave to the Traffic Light

Set III - [71:39]
01 - [05:37] - Wilson
02 - [04:50] - Frankenstein
03 - [15:20] - Scent of a Mule **
04 - [11:57] - Tweezer
05 - [05:34] - A Day in the Life
06 - [13:23] - Possum
07 - [03:02] - Tweezer Reprise
08 - [03:07] - encore break
09 - [08:02] - Harpua #
10 - [00:47] - show outro

* with Ben & Jerry singing a verse
** with a Fishman solo instead of the typical Page/Trey duel
# without the "Ooom Pah Pah" opening and cut short before finishing

Splice Notes:
The B&K 4021 recording was missing the Set 2 tuning and talking at the start of the set.
This portion was spliced in with the following source:

(FOB) AKG 460B/ck61 > Sonosax SX-M2 > Tascam DA-P1 (@ 48kHz)
recorded by Dave Flaschner
http://db.etree.org/shn/32121

Dave's source was used for "set 2 intro" for the following portions:
[00:00] to [00:41]

No actual music was missing from the B&K 4021 recording.

-----------------------------------------------------
shntool 3.0.4 len mode output:

    length     expanded size    cdr  WAVE problems  fmt   ratio  filename
     3:15.040      37447724 B   cxx   --   ---xx   flac  0.4906  ph1996-08-17set1t01.flac
     8:10.093      94097964 B   cxx   --   ---xx   flac  0.5013  ph1996-08-17set1t02.flac
    16:18.120     187799084 B   cxx   --   ---xx   flac  0.4833  ph1996-08-17set1t03.flac
     3:41.893      42603564 B   cxx   --   ---xx   flac  0.5118  ph1996-08-17set1t04.flac
    10:34.867     121894444 B   cxx   --   ---xx   flac  0.4915  ph1996-08-17set1t05.flac
     4:58.840      57377324 B   cxx   --   ---xx   flac  0.5645  ph1996-08-17set1t06.flac
     7:01.960      81016364 B   cxx   --   ---xx   flac  0.5258  ph1996-08-17set1t07.flac
     5:51.240      67438124 B   cxx   --   ---xx   flac  0.4668  ph1996-08-17set1t08.flac
    12:50.613     147957804 B   cxx   --   ---xx   flac  0.5305  ph1996-08-17set1t09.flac
     6:49.333      78592044 B   cxx   --   ---xx   flac  0.5448  ph1996-08-17set1t10.flac
     0:57.883      11113556 B   cxx   --   ---xx   flac  0.3572  ph1996-08-17set2t01.flac
     6:24.360      73797164 B   cxx   --   ---xx   flac  0.4498  ph1996-08-17set2t02.flac
    12:24.013     142850604 B   cxx   --   ---xx   flac  0.4540  ph1996-08-17set2t03.flac
     9:05.213     104681004 B   cxx   --   ---xx   flac  0.4520  ph1996-08-17set2t04.flac
     6:17.747      72527404 B   cxx   --   ---xx   flac  0.4860  ph1996-08-17set2t05.flac
    14:41.333     169216044 B   cxx   --   ---xx   flac  0.4529  ph1996-08-17set2t06.flac
    10:16.280     118325804 B   cxx   --   ---xx   flac  0.4570  ph1996-08-17set2t07.flac
     4:36.867      53158444 B   cxx   --   ---xx   flac  0.4613  ph1996-08-17set2t08.flac
    12:53.413     148495404 B   cxx   --   ---xx   flac  0.4200  ph1996-08-17set2t09.flac
     5:36.653      64637484 B   cxx   --   ---xx   flac  0.4557  ph1996-08-17set3t01.flac
     4:49.947      55669804 B   cxx   --   ---xx   flac  0.4799  ph1996-08-17set3t02.flac
    15:19.773     176596524 B   cxx   --   ---xx   flac  0.3845  ph1996-08-17set3t03.flac
    11:56.693     137605164 B   cxx   --   ---xx   flac  0.4848  ph1996-08-17set3t04.flac
     5:34.320      64189484 B   cxx   --   ---xx   flac  0.4757  ph1996-08-17set3t05.flac
    13:22.933     154163244 B   cxx   --   ---xx   flac  0.4727  ph1996-08-17set3t06.flac
     3:02.187      34979884 B   cxx   --   ---xx   flac  0.5082  ph1996-08-17set3t07.flac
     3:07.240      35950124 B   cxx   --   ---xx   flac  0.3752  ph1996-08-17set3t08.flac
     8:02.253      92592684 B   cxx   --   ---xx   flac  0.4429  ph1996-08-17set3t09.flac
     0:47.000       9024044 B   cxx   --   ---xx   flac  0.3591  ph1996-08-17set3t10.flac
   228:48.110    2635798308 B                            0.4696  (29 files)
Show Checksums
48kHz-FFP
ph1996-08-17set1t01.flac:01071b242d60776fd14edab79db62d94
ph1996-08-17set1t02.flac:33d2306f4c059fdc58ee47a9cdccda74
ph1996-08-17set1t03.flac:a3db522c3e2c40f65fb9ce9bff808ad8
ph1996-08-17set1t04.flac:7aedbaddaa4e1ee2051ad88c1cb19b7c
ph1996-08-17set1t05.flac:eb31d310a5f4200067bd1269a024f077
ph1996-08-17set1t06.flac:8356a654805ea74d42759dbe83e4ad18
ph1996-08-17set1t07.flac:4b873a26e10b775f4203b0efb3b99b24
ph1996-08-17set1t08.flac:3efcf9fa4e00df08def859d89c05f2e8
ph1996-08-17set1t09.flac:d4b153573f2c22be77fa6096771b0714
ph1996-08-17set1t10.flac:bf0852a3269bb8b67473f916af16751e
ph1996-08-17set2t01.flac:6d44800f611a57c89c1b730d831aed7b
ph1996-08-17set2t02.flac:aad32f16e74e0a052167e1fcecce793c
ph1996-08-17set2t03.flac:c50ccf6b5b5c4af65fac996684337b5b
ph1996-08-17set2t04.flac:61c739217dd45d8cc11e1c4dd75d6ee2
ph1996-08-17set2t05.flac:37b7e49b331ea513cca8fa0f17b8fd28
ph1996-08-17set2t06.flac:104263c29178654bbf7e0f44626ae46f
ph1996-08-17set2t07.flac:fb916eeb8c1ee220c53bc53d189b6748
ph1996-08-17set2t08.flac:6c8766c20561dc34b2ffbf0440dfd00b
ph1996-08-17set2t09.flac:46bc4ba9e2a4907e333babbe976d85df
ph1996-08-17set3t01.flac:fdb6a2ba7bcb1b3a162184553fe77aca
ph1996-08-17set3t02.flac:0f7861d21bf533db80ab1393e170a65a
ph1996-08-17set3t03.flac:a485ce05be4a51c95ff1634f99875cd4
ph1996-08-17set3t04.flac:3c784549a56f1ec0942f06d7f607ecb9
ph1996-08-17set3t05.flac:ee69adccecf743290727af8c54684ee2
ph1996-08-17set3t06.flac:842c481b45c6f7e6854ef4455ec1dab1
ph1996-08-17set3t07.flac:4fe6ec6c1a2406f3aee6c9cf32629deb
ph1996-08-17set3t08.flac:d5e283d996b44752ab268384d97c2d4b
ph1996-08-17set3t09.flac:6eb2fb1bde19512e4e8923f157268628
ph1996-08-17set3t10.flac:0a189b062cdb1d907445ec4579de9084

Comments
Add Comment
Other Sources (comments)
DSBD -> CD-R except for... (0) DSBD > DATx3 @44.1kHz >... (10) SBD > DAT (99% of the... (2) Flatbed Jam (partial);... (1) FOB AKG 460B/ck61 > Sonosax... (0) B&K 4021 > EAA PSP-2 >... (0) B&K 4011s > Neumann BS48i-2... (0) flac16 48kHz... (0) flac16, 44kHz;... (1)
Date User Comment