Browse Collections Artists Sources   Search Dates

Add Show    List Management    Help


Grateful Dead 10/03/94
Boston Garden, Boston, MA
Comments Add Comment    Source Collectors    Add to Collection    Add to Want List    History
Source # 132411 Other Sources
Entered by Matt Vernon
Checksums flac-md5 , ffp
Disc Counts 0 / 0
Media Size Compressed: 864.16 MB (906137600 bytes)
Uncompressed: 1.55 GB (1669128300 bytes)
Date Circulated
Date Added
02/08/2015
02/08/2015
Source Summary flac16; AUD: Nakamichi CM300/CP4 shotguns > Casio DA-7 > TDK DC4 DAT. Mics on 7-foot stand, end of floor, center & straight back by the hockey wall. Transfer: MAD > Sony TC-D8 > Optical out > Edirol FA-66 > Wavelab 1648 > R8Brain > CD-Wave > TLH > FLAC 1644 tagged. Recording & transfer by Andrew F. 02/2015 
  Archive
Source Information - Download Text | Download Zip
GRATEFUL DEAD
Boston Garden
Boston MA
10-03-1994

s1t01 crowd
s1t02 Touch of Grey >
s1t03 Beat it on Down the Line
s1t04 Loose Lucy
s1t05 Little Red Rooster
s1t06 Childhood's End
s1t07 Dire Wolf
s1t08 Black Throated Wind
s1t09 Birdsong

s2t01 Box of Rain
s2t02 Shakedown Street
s2t03 Cassidy >
s2t04 Goin' Down the Road >
s2t05 Drums >
s2t06 Electronic Percussion >
s2t07 Space >
s2t08 The Wheel >
s2t09 All Along the Watchtower >
s2t10 Attics of My Life
s2t11 Around & Around
s2t12 Encore: Brokedown Palace

AUD: Nakamichi CM300/CP4 shotguns > Casio DA-7 > TDK DC4 DAT. Mics on
7-foot stand, end of floor, center & straight back by the hockey wall.

Transfer: MAD > Sony TC-D8 > Optical out > Edirol FA-66 > Wavelab 1648 >
R8Brain > CD-Wave > TLH > FLAC 1644 tagged. Recording & transfer by
Andrew F. 02/2015

Thanks to Ted Carpenter for loaning his mics & stand for this run!

    length     expanded size    cdr  WAVE problems  fmt   ratio  filename
     2:04.55       22003004 B   ---   --   ---xx   flac  0.4724  gd1994-10-03s1t01.flac
     7:30.31       79452956 B   ---   --   ---xx   flac  0.5850  gd1994-10-03s1t02.flac
     3:24.37       36072668 B   ---   --   ---xx   flac  0.5810  gd1994-10-03s1t03.flac
     7:56.40       84060524 B   ---   --   ---xx   flac  0.5503  gd1994-10-03s1t04.flac
    10:04.22      106597388 B   ---   --   ---xx   flac  0.5251  gd1994-10-03s1t05.flac
     4:41.62       49714268 B   ---   --   ---xx   flac  0.5271  gd1994-10-03s1t06.flac
     4:07.32       43646108 B   ---   --   ---xx   flac  0.5346  gd1994-10-03s1t07.flac
     5:53.38       62358620 B   ---   --   ---xx   flac  0.5499  gd1994-10-03s1t08.flac
    13:28.64      142681772 B   ---   --   ---xx   flac  0.5498  gd1994-10-03s1t09.flac
     5:30.09       58233212 B   ---   --   ---xx   flac  0.5536  gd1994-10-03s2t01.flac
    17:17.36      183011516 B   ---   --   ---xx   flac  0.5767  gd1994-10-03s2t02.flac
     7:43.45       81779084 B   ---   --   ---xx   flac  0.5837  gd1994-10-03s2t03.flac
     8:24.26       88966796 B   ---   --   ---xx   flac  0.5733  gd1994-10-03s2t04.flac
     7:51.70       83249084 B   ---   --   ---xx   flac  0.5653  gd1994-10-03s2t05.flac
     8:02.45       85130684 B   ---   --   ---xx   flac  0.4226  gd1994-10-03s2t06.flac
    14:03.30      148775804 B   ---   --   ---xx   flac  0.4619  gd1994-10-03s2t07.flac
     4:46.60       50591564 B   ---   --   ---xx   flac  0.5681  gd1994-10-03s2t08.flac
     6:32.16       69186476 B   ---   --   ---xx   flac  0.5860  gd1994-10-03s2t09.flac
     4:23.22       46444988 B   ---   --   ---xx   flac  0.5267  gd1994-10-03s2t10.flac
     8:43.41       92353676 B   ---   --   ---xx   flac  0.5666  gd1994-10-03s2t11.flac
     5:10.57       54818108 B   ---   --   ---xx   flac  0.5310  gd1994-10-03s2t12.flac
   157:42.13     1669128300 B                            0.5427  (21 files)

No errors occured.

Show Checksums
flac-md5
997695827ce7e3409cb0f5b74d1b8f78 *gd1994-10-03s1t01.flac
fd35033396fc9cfc98a447bd4c121205 *gd1994-10-03s1t02.flac
5a75a36f786d1923795dba13c94a92b8 *gd1994-10-03s1t03.flac
69fdcd9219564b6dfa3ac83809a1b570 *gd1994-10-03s1t04.flac
75243977ebe531ef27c2a2a22474bbc3 *gd1994-10-03s1t05.flac
38836d906f469e50222962428cbf7e47 *gd1994-10-03s1t06.flac
f642f2d7f43cc81da5d3d8205e92af34 *gd1994-10-03s1t07.flac
6e552b596a8e2abcfb6f07a258df84aa *gd1994-10-03s1t08.flac
4723e14b6f5f197ddab955187ab0c054 *gd1994-10-03s1t09.flac
a115ded975e5a6afab2dc77198f94684 *gd1994-10-03s2t01.flac
f8b290a638f602466f0aa043614cec82 *gd1994-10-03s2t02.flac
5fa6813eb715aded49914a55e6584fff *gd1994-10-03s2t03.flac
c38230b7fcaeaee2704952f5320fa0fa *gd1994-10-03s2t04.flac
a7f3a12c011be774a54f4bf76a6c8b20 *gd1994-10-03s2t05.flac
d73bb27310365f7660256ae0bf8e60b4 *gd1994-10-03s2t06.flac
5eb18f8d9e8efbecd51bdf11c8650a23 *gd1994-10-03s2t07.flac
5c0a99d4ecc12ea18ff141db7048b242 *gd1994-10-03s2t08.flac
a521d70e63d88e5af597910441586aad *gd1994-10-03s2t09.flac
cd628a739335ed60d350fba9b23ca3d1 *gd1994-10-03s2t10.flac
3a6508c550d064358ddb11e432cd8009 *gd1994-10-03s2t11.flac
42ceb7e1be936a8564faca268e0725ef *gd1994-10-03s2t12.flac
ffp
gd1994-10-03s1t01.flac:693094789eee868b962492be9b97ff5f
gd1994-10-03s1t02.flac:52795c5d16c563016bb738c9c56f5478
gd1994-10-03s1t03.flac:71556310aa7d59d6246c25832a1edef6
gd1994-10-03s1t04.flac:d0d2ab20d343880f81b374f4f200782a
gd1994-10-03s1t05.flac:32a3f2e408ec1e48148177e7584b3b3e
gd1994-10-03s1t06.flac:7bc3edffa37b511f89e3d29d07acb23d
gd1994-10-03s1t07.flac:af80cda59d24e717905954eeffac8722
gd1994-10-03s1t08.flac:a83cfbfa64dda98455ec66c07dcf5533
gd1994-10-03s1t09.flac:aaa27abd7925ef7d3b76077d799b63cf
gd1994-10-03s2t01.flac:764a48a55c516c82e52e7cd3c87af2dc
gd1994-10-03s2t02.flac:7fdb34dc2853c5f448f72d4d53735278
gd1994-10-03s2t03.flac:a17440202b3c32349f3db843f9787555
gd1994-10-03s2t04.flac:3f77a19d8158a016f529bed458cb5161
gd1994-10-03s2t05.flac:96d4c82c4d317571da727017d825ee76
gd1994-10-03s2t06.flac:8fa2cdd137531634d07b0e71dc503fdb
gd1994-10-03s2t07.flac:56616552eeecd373e25f9942bda1fc6a
gd1994-10-03s2t08.flac:bce6bffaf9c7fbf8c1349c6d432fe5a5
gd1994-10-03s2t09.flac:c2c2821e31cadb3bf08560e332a61608
gd1994-10-03s2t10.flac:aeaec0bf417254077cbec7e8e900ab42
gd1994-10-03s2t11.flac:1805619532d2a7b96626b6c533f9b21d
gd1994-10-03s2t12.flac:aae24332ff0c0a6fc8be48c68ed91397

Comments
Add Comment
Other Sources (comments)
unknown audience> bootleg... (1) FOB Schoeps... (1) PMB Microphones FOB> Sony... (0) flac16; AKG... (0) flac16/48kHz;... (0) flac16/48kHz; Rich... (0)
Date User Comment