Browse Collections Artists Sources   Search Dates

Add Show    List Management    Help


Grateful Dead 10/02/94
Boston Garden, Boston, MA
Comments Add Comment    Source Collectors    Add to Collection    Add to Want List    History
Source # 132486 Other Sources
Entered by Matt Vernon
Checksums flac-md5 , ffp
Disc Counts 0 / 0
Media Size Compressed: 1.06 GB (1133330432 bytes)
Uncompressed: 1.84 GB (1975370592 bytes)
Date Circulated
Date Added
02/14/2015
02/14/2015
Source Summary flac16; AUD: Nakamichi CM300/CP4 shotguns > Casio DA-7 > TDK DC4 DAT. Mics on 7-foot stand, end of floor, center & straight back by the hockey wall. Transfer: MAD > Sony TC-D8 > Optical out > Edirol FA-66 > Wavelab 1648 > R8Brain > CD-Wave > TLH > FLAC 1644 tagged. Recording & transfer by Andrew F. 02/2015 
  Archive
Source Information - Download Text | Download Zip
GRATEFUL DEAD
Boston Garden
Boston MA
10-02-1994

s1t01 Jack Straw
s1t02 Loser
s1t03 It's All Over Now
s1t04 Row Jimmy
s1t05 Broken Arrow
s1t06 Mama Tried >
s1t07 Mexicali Blues
s1t08 Tennessee Jed
s1t09 Picasso Moon

s2t01 Iko Iko
s2t02 Samba in the Rain
s2t03 If the Shoe Fits
s2t04 Samson & Delilah
s2t05 Crazy Fingers >
s2t06 Truckin' >
s2t07 That Would Be Something >
s2t08 Drums >
s2t09 Electronic Percussion >
s2t10 Space >
s2t11 The Days Between >
s2t12 Throwing Stones >
s2t13 Not Fade Away
s2t14 crowd chant
s2t15 Encore: U.S. Blues

AUD: Nakamichi CM300/CP4 shotguns > Casio DA-7 > TDK DC4 DAT. Mics on
7-foot stand, end of floor, center & straight back by the hockey wall.

Transfer: MAD > Sony TC-D8 > Optical out > Edirol FA-66 > Wavelab 1648 >
R8Brain > CD-Wave > TLH > FLAC 1644 tagged. Recording & transfer by
Andrew F. 02/2015 Thanks to Ted Carpenter for loaning his mics & stand!

Notes: ID-10223 patch covers crowd chant track 0:00 > 2:30. There's a
few mic bumps audible in Second Set, the whole building was shaking.

    length     expanded size    cdr  WAVE problems  fmt   ratio  filename
     7:08.60       75640364 B   ---   --   ---xx   flac  0.5952  gd1994-10-02s1t01.flac
     8:33.26       90554396 B   ---   --   ---xx   flac  0.5557  gd1994-10-02s1t02.flac
     7:09.38       75765020 B   ---   --   ---xx   flac  0.5939  gd1994-10-02s1t03.flac
    12:53.36      136441916 B   ---   --   ---xx   flac  0.5643  gd1994-10-02s1t04.flac
     7:07.26       75383996 B   ---   --   ---xx   flac  0.5682  gd1994-10-02s1t05.flac
     2:38.03       27878300 B   ---   --   ---xx   flac  0.6081  gd1994-10-02s1t06.flac
     5:51.63       62064620 B   ---   --   ---xx   flac  0.6229  gd1994-10-02s1t07.flac
     7:51.35       83166764 B   ---   --   ---xx   flac  0.6003  gd1994-10-02s1t08.flac
     7:13.21       76430636 B   ---   --   ---xx   flac  0.6353  gd1994-10-02s1t09.flac
    12:55.12      136738268 B   ---   --   ---xx   flac  0.5978  gd1994-10-02s2t01.flac
     7:15.03       76741100 B   ---   --   ---xx   flac  0.5921  gd1994-10-02s2t02.flac
     7:19.08       77458460 B   ---   --   ---xx   flac  0.5940  gd1994-10-02s2t03.flac
     9:13.14       97582172 B   ---   --   ---xx   flac  0.5862  gd1994-10-02s2t04.flac
     8:35.67       91003628 B   ---   --   ---xx   flac  0.5475  gd1994-10-02s2t05.flac
     7:41.17       81360428 B   ---   --   ---xx   flac  0.6278  gd1994-10-02s2t06.flac
     8:25.44       89185532 B   ---   --   ---xx   flac  0.5645  gd1994-10-02s2t07.flac
     4:56.31       52287356 B   ---   --   ---xx   flac  0.5136  gd1994-10-02s2t08.flac
     6:28.15       68478524 B   ---   --   ---xx   flac  0.4710  gd1994-10-02s2t09.flac
     9:18.09       98452412 B   ---   --   ---xx   flac  0.4653  gd1994-10-02s2t10.flac
    12:37.57      133668908 B   ---   --   ---xx   flac  0.5429  gd1994-10-02s2t11.flac
     9:54.34      104861612 B   ---   --   ---xx   flac  0.6042  gd1994-10-02s2t12.flac
     7:22.31       78041756 B   ---   --   ---xx   flac  0.5930  gd1994-10-02s2t13.flac
     2:56.46       31154636 B   ---   --   ---xx   flac  0.5118  gd1994-10-02s2t14.flac
     5:11.72       55029788 B   ---   --   ---xx   flac  0.6183  gd1994-10-02s2t15.flac
   186:38.18     1975370592 B                            0.5736  (24 files)

No errors occured.

Show Checksums
flac-md5
c9a2eb37248c7728898220d93f06ec49 *gd1994-10-02s1t01.flac
3b2068f1390db138f9c5b57b54a2d762 *gd1994-10-02s1t02.flac
7a254829ed88c0ad8d4aa7db1c37b2ff *gd1994-10-02s1t03.flac
dcce956efd5e4fe5213d8d1e89760533 *gd1994-10-02s1t04.flac
c3ce908ee05fb469202a4b3097a7dd84 *gd1994-10-02s1t05.flac
0a7b5e7d7139eb9481f29d4b73713d99 *gd1994-10-02s1t06.flac
1ba8c65c227f397056b7932d6c55f62e *gd1994-10-02s1t07.flac
dcac1bf7fc3afa02a5d8e4804945d50b *gd1994-10-02s1t08.flac
960b2ad7808dc498957a6c48891f0db6 *gd1994-10-02s1t09.flac
5d45d4afe02eeb3dce8048b5e84d043d *gd1994-10-02s2t01.flac
156a2df8ebab0272741faa7ae00f2868 *gd1994-10-02s2t02.flac
c04cbc86506ee8b9fff7d8f545c9077e *gd1994-10-02s2t03.flac
697d281ad8cce9c22d0890b0d28e40e6 *gd1994-10-02s2t04.flac
c2ceab24fbef1dad3344af3d6ed0e845 *gd1994-10-02s2t05.flac
9f7f26d3dd5f4cb7cdd9f31491542491 *gd1994-10-02s2t06.flac
c6cd00de15481fa542019ed8745addaa *gd1994-10-02s2t07.flac
bb84637b82f355631b8b8b38ce141083 *gd1994-10-02s2t08.flac
aed9cdcdff02e969d6a59386553232cf *gd1994-10-02s2t09.flac
adf42c7387ef449ce5eb719985e7f68c *gd1994-10-02s2t10.flac
c5cc1dbe269a49540057801ee60fd1be *gd1994-10-02s2t11.flac
e2d3eede9df3da1226c93988afbbc468 *gd1994-10-02s2t12.flac
2a9a50c1ab0b6cf477d50b89d17451b0 *gd1994-10-02s2t13.flac
f16e227918f6b08599ae642ea4942297 *gd1994-10-02s2t14.flac
f9cea54ba02c91a2b94edbcfb9799871 *gd1994-10-02s2t15.flac
ffp
gd1994-10-02s1t01.flac:206c12c5bc38c2cc0bb78e9bb40e219c
gd1994-10-02s1t02.flac:60362088414c2c06b6d9e6246998b37b
gd1994-10-02s1t03.flac:bd2ea99d131996580e4237ecae18bb35
gd1994-10-02s1t04.flac:09041336cb92e7aadfb75579fa0a79c7
gd1994-10-02s1t05.flac:e2f9b356bc19e83aa72c981bfe6b4cac
gd1994-10-02s1t06.flac:a634f0c0b961da5f8887c8afbb6564c9
gd1994-10-02s1t07.flac:a92b6a2370fc2fc3f0f3ffd1f8af02e9
gd1994-10-02s1t08.flac:64f28fcdf1e74b008b9599591004e920
gd1994-10-02s1t09.flac:5dced0aeba860bc16e82d1a9b94b7589
gd1994-10-02s2t01.flac:65ced7e81fa61858e9d19735a187cf81
gd1994-10-02s2t02.flac:2f4fb134664a7c7d77af2e8d4e59f944
gd1994-10-02s2t03.flac:fae4c86a651b552f881024a86c77a993
gd1994-10-02s2t04.flac:67d02585410dafe1f101386821c52d71
gd1994-10-02s2t05.flac:db16995a872fa5693a651022de10aaab
gd1994-10-02s2t06.flac:df33eb5b5eefc4b884c8ba90a0f2962a
gd1994-10-02s2t07.flac:b3ec4f7bc2c36f29034198406a8e0c90
gd1994-10-02s2t08.flac:d3136579e53b6edf7a56950cc8293043
gd1994-10-02s2t09.flac:4b702c0e00230ec02f14319556274bf1
gd1994-10-02s2t10.flac:f60aa89285f908fd7ed09b0ef07c79b6
gd1994-10-02s2t11.flac:18ba21e6e0c65b79eeaf91eb6e1e4f81
gd1994-10-02s2t12.flac:c306e6d6349cd9687223b51079ed3e30
gd1994-10-02s2t13.flac:6d4ae1cdadc274c746331b88b69a4e33
gd1994-10-02s2t14.flac:8ae02b75caf4b597923cc7609ee30d8f
gd1994-10-02s2t15.flac:66cca24319c20bff5c80fab90671921c

Comments
Add Comment
Other Sources (comments)
Unknown Schoeps audience... (1) PMB Microphones FOB> Sony... (0) flac16; AKG... (0) flac16/48kHz;... (0) flac16/48kHz; Rich... (0) flac16/48kHz; Master... (0)
Date User Comment