Browse Collections Artists Sources   Search Dates

Add Show    List Management    Help


Grateful Dead 10/01/94
Boston Garden, Boston, MA
Comments Add Comment    Source Collectors    Add to Collection    Add to Want List    History
Source # 132503 Other Sources
Entered by Matt Vernon
Checksums flac-md5 , ffp
Disc Counts 0 / 0
Media Size Compressed: 1.09 GB (1167196160 bytes)
Uncompressed: 1.88 GB (2013762200 bytes)
Date Circulated
Date Added
02/21/2010
02/21/2015
Source Summary flac16; AUD: Nakamichi CM300/CP4 shotguns > Casio DA-7 > TDK DC4 DAT. Mics on 7-foot stand, end of floor, center & straight back by the hockey wall. Transfer: MAD > Sony TC-D8 > Optical out > Edirol FA-66 > Wavelab 1648 > R8Brain > CD-Wave > TLH > FLAC 1644 tagged. Recording & transfer by Andrew F. 02/2015 
  Archive
Source Information - Download Text | Download Zip
GRATEFUL DEAD
Boston Garden
Boston MA
10-01-1994

s1t01 crowd
s1t02 Help on the Way > Slipknot >
s1t03 Franklin's Tower
s1t04 Walkin' Blues
s1t05 Althea
s1t06 Me & My Uncle >
s1t07 Big River
s1t08 Just Like Tom Thumb's Blues
s1t09 So Many Roads
s1t10 Promised Land

s2t01 Scarlet Begonias >
s2t02 Fire on the Mountain
s2t03 Long Way to Go Home
s2t04 Saint of Circumstance
s2t05 Terrapin >
s2t06 Drums >
s2t07 Electronic Percussion >
s2t08 Space >
s2t09 The Last Time >
s2t10 Stella Blue >
s2t11 One More Saturday Night
s2t12 Encore: Liberty

AUD: Nakamichi CM300/CP4 shotguns > Casio DA-7 > TDK DC4 DAT. Mics on
7-foot stand, end of floor, center & straight back by the hockey wall.

Transfer: MAD > Sony TC-D8 > Optical out > Edirol FA-66 > Wavelab 1648 >
R8Brain > CD-Wave > TLH > FLAC 1644 tagged. Recording & transfer by
Andrew F. 02/2015

Thanks to Ted Carpenter for loaning his mics & stand for this run!

    length     expanded size    cdr  WAVE problems  fmt   ratio  filename
     2:15.05       23825804 B   ---   --   ---xx   flac  0.4863  gd1994-10-01s1t01.flac
     9:09.03       96850700 B   ---   --   ---xx   flac  0.5983  gd1994-10-01s1t02.flac
    12:17.22      130058588 B   ---   --   ---xx   flac  0.6098  gd1994-10-01s1t03.flac
     5:50.27       61803548 B   ---   --   ---xx   flac  0.6147  gd1994-10-01s1t04.flac
    10:39.46      112827836 B   ---   --   ---xx   flac  0.5848  gd1994-10-01s1t05.flac
     2:51.38       30253820 B   ---   --   ---xx   flac  0.6111  gd1994-10-01s1t06.flac
     7:24.73       78493340 B   ---   --   ---xx   flac  0.5983  gd1994-10-01s1t07.flac
     7:11.33       76106060 B   ---   --   ---xx   flac  0.5825  gd1994-10-01s1t08.flac
     7:18.33       77340860 B   ---   --   ---xx   flac  0.5999  gd1994-10-01s1t09.flac
     5:06.73       54150140 B   ---   --   ---xx   flac  0.6319  gd1994-10-01s1t10.flac
    12:01.00      127184444 B   ---   --   ---xx   flac  0.6018  gd1994-10-01s2t01.flac
    16:46.26      177519596 B   ---   --   ---xx   flac  0.6038  gd1994-10-01s2t02.flac
     6:48.10       71994764 B   ---   --   ---xx   flac  0.6024  gd1994-10-01s2t03.flac
     7:47.09       82400012 B   ---   --   ---xx   flac  0.6141  gd1994-10-01s2t04.flac
    16:23.47      173511788 B   ---   --   ---xx   flac  0.5896  gd1994-10-01s2t05.flac
     5:22.55       56930204 B   ---   --   ---xx   flac  0.5158  gd1994-10-01s2t06.flac
     6:16.57       66460508 B   ---   --   ---xx   flac  0.4779  gd1994-10-01s2t07.flac
    18:09.10      192123164 B   ---   --   ---xx   flac  0.4800  gd1994-10-01s2t08.flac
     6:00.24       63560492 B   ---   --   ---xx   flac  0.5956  gd1994-10-01s2t09.flac
    11:26.29      121078652 B   ---   --   ---xx   flac  0.5493  gd1994-10-01s2t10.flac
     4:59.37       52830668 B   ---   --   ---xx   flac  0.6390  gd1994-10-01s2t11.flac
     8:10.09       86457212 B   ---   --   ---xx   flac  0.6036  gd1994-10-01s2t12.flac
   190:15.66     2013762200 B                            0.5794  (22 files)

No errors occured.

Show Checksums
flac-md5
6729f5095192217d5791c1143b54601f *gd1994-10-01s1t01.flac
852f28790365e86bcf8333f11b182d7f *gd1994-10-01s1t02.flac
e42a806f638548ac0be88e51d1024b3f *gd1994-10-01s1t03.flac
521fcdfa13251bff58ba4fe64d2554f2 *gd1994-10-01s1t04.flac
0f1e2f7e19aeee7507018339cb4bd1dc *gd1994-10-01s1t05.flac
f59c138b4728564c8a937c1240313b03 *gd1994-10-01s1t06.flac
5ed028e1c2ed786f37e58a4ba074a526 *gd1994-10-01s1t07.flac
65e12e24ea70047ffbbe998c024681a8 *gd1994-10-01s1t08.flac
c24fde6d0d58d46ff17bbfd3611c1a46 *gd1994-10-01s1t09.flac
a39e56f2c8d0837e342cfbb3f822559f *gd1994-10-01s1t10.flac
95aba0788569312e20d6bc2ae19d320e *gd1994-10-01s2t01.flac
f3c30ff00fe87f9d436afd18b58c943f *gd1994-10-01s2t02.flac
8bbce3cd6ac9796c2398195cbfa1e763 *gd1994-10-01s2t03.flac
0cfce97e5df33ff4a51a50cc24259f80 *gd1994-10-01s2t04.flac
c688732c00eeac4b36638e78d7fb7d8d *gd1994-10-01s2t05.flac
a6b98fa6bf5dc368697297369f2bd9fc *gd1994-10-01s2t06.flac
d32c75ab5f606126d128fb5fab3a9777 *gd1994-10-01s2t07.flac
861bdc3cc09c2ab1ed84f5b45e8beeca *gd1994-10-01s2t08.flac
533070da1150c9cd454b3fc2546d5fb5 *gd1994-10-01s2t09.flac
cd77c8daf4aa24375027e7d529019253 *gd1994-10-01s2t10.flac
41155fc960494f39820dcf4cc2aba90f *gd1994-10-01s2t11.flac
043f107d7663fd66f9103e3986123d7c *gd1994-10-01s2t12.flac
ffp
gd1994-10-01s1t01.flac:5510f7be2c420854f853dbc926091ce2
gd1994-10-01s1t02.flac:3698f2130f79e3172a32b0527197a6fa
gd1994-10-01s1t03.flac:3b1b3b60ba57720565c1367f07359fc4
gd1994-10-01s1t04.flac:a084297faee0f439640684264102de32
gd1994-10-01s1t05.flac:b97de7287b14b764186f80661db53f76
gd1994-10-01s1t06.flac:e8f8444708f17cdd29420607ebed859b
gd1994-10-01s1t07.flac:c9f8acf00832084c739cdf42c6a5462d
gd1994-10-01s1t08.flac:8c9fd5fa67624ea273737d90b61bc76c
gd1994-10-01s1t09.flac:61e2c044cdba189c8e13d00f67c45cd4
gd1994-10-01s1t10.flac:a22734a353594942f0ac1372f0ca5ffd
gd1994-10-01s2t01.flac:a351a93a8c206af1f90bf1ec096d1434
gd1994-10-01s2t02.flac:0ee12df7be881eaa8ccb5dea66246faf
gd1994-10-01s2t03.flac:751a842f3ed3428e886147c5a509adf8
gd1994-10-01s2t04.flac:62c68d9402fcd33570fed412b5be54d7
gd1994-10-01s2t05.flac:eda8fe8718ff0b1b8a1a7110709a493e
gd1994-10-01s2t06.flac:a920d0f7e35c1b861a104be5a65a284e
gd1994-10-01s2t07.flac:cf8980a6e4770ed13f9496a5205f7fc8
gd1994-10-01s2t08.flac:c338d4dcaac2b9ead13048e803d433b2
gd1994-10-01s2t09.flac:05e5ed6b721f20d86a1d3a2e98fbb5b5
gd1994-10-01s2t10.flac:e8d93df7d2c131816fd10479ff0f038e
gd1994-10-01s2t11.flac:930b35ea02a953c7aaebafd4062356a7
gd1994-10-01s2t12.flac:2ee5389175debd9ad1ced23d319e6491

Comments
Add Comment
Other Sources (comments)
SBD> unknown analog? > DAT>... (3) SBD> Dat> CDR (Pre-Fm GDH... (3) Bertha Remaster of Master... (1) PMB Microphones (German)(1)... (0) Txt-file is exactly the... (0) flac16; Digital FOB... (7) flac16/48; Digital... (0) flac16; AKG... (0) flac16; Matrix by... (0) flac16/48kHz; Rich... (0) flac16/48kHz; Master... (0)
Date User Comment