Browse Collections Artists Sources   Search Dates

Add Show    List Management    Help


Grateful Dead 04/26/83
The Spectrum, Philadelphia, PA
Comments Add Comment    Source Collectors    Add to Collection    Add to Want List    History
Source # 132607 Other Sources
Entered by Matt Vernon
Checksums ffp , flac-md5
Disc Counts 0 / 0
Media Size Compressed: 1.07 GB (1148784842 bytes)
Uncompressed: 1.65 GB (1774185084 bytes)
Date Circulated
Date Added
03/12/2015
03/12/2015
Source Summary flac16; 2 Source Matrix by Dusborne; Soundboard(shinid:97544) SBD -> Cassette Master -> Cassette -> Dat (48k); Dat (Sony R500) -> Sound Devices 744T -> Adobe Audition v1.5 -> Samplitude Professional v10.2 -> FLAC; and Audience(shinid:28360) Unknown mics > MC > C > C > Hardrive via souncard > Cool Edit to split tracks > flac 
  Archive
Source Information - Download Text | Download Zip
Grateful Dead
April 26, 1983
The Spectrum
Philadelphia, PA

2 Source Matrix

Soundboard(shinid:97544)
--------------------------------------------------------------------------------------------------
gd83-04-26.sbd.miller.97544.sbeok.flac16

Recording Info:
SBD -> Cassette Master -> Cassette -> Dat (48k)

Transfer Info:
Dat (Sony R500) -> Sound Devices 744T -> Adobe Audition v1.5 ->
Samplitude Professional v10.2 -> FLAC
(3 Discs Audio / 2 Discs FLAC)

All Transfers and Mastering By Charlie Miller
[email protected]
February 19, 2009

Patch Info:
(FOB) Sennheiser Shotguns -> Cassette Master -> CD (shnid=28161) supplies:
Space (10:32 - 10:55)

Notes:
-- Set 2 is seamless
-- Static during Maybe You Know is from the PA
-- Nobody's Fault But Mine and Spoonful jam after Truckin'
-- This source sounds a bit clearer than the other circulating soundboards
-- Thanks to Ron Keyser for the Dat
-- Thanks to Joe B. Jones for his help with the pitch correction

Audience(shinid:28360)
----------------------------------------------------------------------------------------------------
gd83-04-26.28360.aud.dillon.sbefail.t-flac16

Source: Unknown mics > MC > C > C > Hardrive via souncard >
Cool Edit to split tracks > flac

Comments:
- Don't let this lineage scare you...sounds great.
- Abrupt stop after d1t6 is on master (tape flip)
- There was a cut/blank space in Drums that was removed with Cool Edit
- Abrupt stop at end of d3t5 is on master

give thanks to David Dillon for transfering his tapes to disk and preparing this seed!!!
-----------------------------------------------------------------------------------------------------
---Thank you Charlie Miller for your work on the SBD.
---Thank you Ron Keyser for the SBD DAT.
---Thank you Joe B. Jones for pitch correction on the SBD.
---Thank you David Dillon for your work on the AUD.
---Thank you Bruce "The Big Woods" for the artwork.
---Thank you Germain for your advice, encouragement, guidance and seeding.

Matrix by dusborne
03-02-2015
------------------------------------------------------------------------------------------------------

Set 1

101 - gd83-04-26s1t01 - Shakedown Street
102 - gd83-04-26s1t02 - New Minglewood Blues
103 - gd83-04-26s1t03 - They Love Each Other
104 - gd83-04-26s1t04 - Me And My Uncle ->
105 - gd83-04-26s1t05 - Mexicali Blues
106 - gd83-04-26s1t06 - Maybe You Know
107 - gd83-04-26s1t07 - West L.A. Fadeaway
108 - gd83-04-26s1t08 - My Brother Esau
109 - gd83-04-26s1t09 - It Must Have Been The Roses
110 - gd83-04-26s1t10 - Let It Grow

Set 2

201 - gd83-04-26s2t01 - Help On The Way ->
202 - gd83-04-26s2t02 - Slipknot! ->
203 - gd83-04-26s2t03 - Franklin's Tower ->
204 - gd83-04-26s2t04 - Man Smart (Woman Smarter) ->
205 - gd83-04-26s2t05 - Drums ->
206 - gd83-04-26s2t06 - Space ->
207 - gd83-04-26s2t07 - Truckin' ->
208 - gd83-04-26s2t08 - Morning Dew ->
209 - gd83-04-26s2t09 - Throwing Stones ->
210 - gd83-04-26s2t10 - Not Fade Away

Encore
211 - gd83-04-26s2t11 - U.S. Blues
-----------------------------------------------------------------------------------------------------
Tagging notes:
Show information is embedded within the header of each flac file.
It will display on any player capable of directly playing flac
files. If converted to wav during processing, all tags will be
stripped, however audio data will remain unaffected. If you must
transcode to a lossy format, do so directly Flac > Lossy.
Use ffp to validate audio integrity.
Md5 values will change if tagging is altered.

Dave Usborne 03-02-2015
------------------------------------------------------------------------------------------------------
length     expanded size    cdr  WAVE problems  fmt   ratio  filename
    14:35.23      154404140 B   ---   --   ---xx   flac  0.6432  gd83-04-26s1t01.flac
     8:19.73       88195340 B   ---   --   ---xx   flac  0.6519  gd83-04-26s1t02.flac
     8:37.07       91215308 B   ---   --   ---xx   flac  0.6309  gd83-04-26s1t03.flac
     3:18.33       35004860 B   ---   --   ---xx   flac  0.6444  gd83-04-26s1t04.flac
     5:34.19       58962332 B   ---   --   ---xx   flac  0.6430  gd83-04-26s1t05.flac
     5:00.65       53072924 B   ---   --   ---xx   flac  0.6533  gd83-04-26s1t06.flac
     8:03.02       85205948 B   ---   --   ---xx   flac  0.6423  gd83-04-26s1t07.flac
     5:18.27       56158748 B   ---   --   ---xx   flac  0.6317  gd83-04-26s1t08.flac
     5:25.30       57400604 B   ---   --   ---xx   flac  0.6493  gd83-04-26s1t09.flac
    12:29.10      132147164 B   ---   --   ---xx   flac  0.6647  gd83-04-26s1t10.flac
     3:59.40       42253724 B   ---   --   ---xx   flac  0.6508  gd83-04-26s2t01.flac
     4:36.45       48792284 B   ---   --   ---xx   flac  0.6754  gd83-04-26s2t02.flac
     9:44.01      103019996 B   ---   --   ---xx   flac  0.6999  gd83-04-26s2t03.flac
     6:55.55       73335404 B   ---   --   ---xx   flac  0.6900  gd83-04-26s2t04.flac
    11:17.07      119439308 B   ---   --   ---xx   flac  0.5965  gd83-04-26s2t05.flac
    12:40.64      134214572 B   ---   --   ---xx   flac  0.5833  gd83-04-26s2t06.flac
     7:37.02       80619548 B   ---   --   ---xx   flac  0.6785  gd83-04-26s2t07.flac
    10:32.52      111607148 B   ---   --   ---xx   flac  0.6448  gd83-04-26s2t08.flac
     9:39.72      102304988 B   ---   --   ---xx   flac  0.6580  gd83-04-26s2t09.flac
     8:57.61       94870316 B   ---   --   ---xx   flac  0.6481  gd83-04-26s2t10.flac
     4:54.42       51960428 B   ---   --   ---xx   flac  0.6912  gd83-04-26s2t11.flac
   167:37.55     1774185084 B                            0.6475  (21 files)



Show Checksums
ffp
gd83-04-26s1t01.flac:caf12c6a9bd926ad7fb358837d558d03
gd83-04-26s1t02.flac:7b4ccfa45c83d8b2797e8cdb07b90b09
gd83-04-26s1t03.flac:9faea5a6a489eede9bf2fb51f246e495
gd83-04-26s1t04.flac:16bb3ed80067ae564ef8cc2e84075706
gd83-04-26s1t05.flac:796f1e0423c389344ab829f289fb150f
gd83-04-26s1t06.flac:467358a60d0e856d50f575c37799dae1
gd83-04-26s1t07.flac:74b4323673e352a183d9e8b322aab4ff
gd83-04-26s1t08.flac:f05bcf18e0cb5fa79aee656eb1b72dce
gd83-04-26s1t09.flac:c7cb094066a64d17aacdfb33e4c6ad7f
gd83-04-26s1t10.flac:e5aad2ca6e2d55d13206d4b768e4649a
gd83-04-26s2t01.flac:b8d9fa15bf47bb8c4c7efef4283b38ee
gd83-04-26s2t02.flac:4084d1c522350bf9cf0869645e58a54f
gd83-04-26s2t03.flac:6a054bc76584dc8ef697276f5c38434d
gd83-04-26s2t04.flac:7a191f5a9ada9254fcb7bf64092e0d99
gd83-04-26s2t05.flac:698a320b7da45a6dbfb23e2391e9e172
gd83-04-26s2t06.flac:feaf1b7721132d16c6dcec6fe6fe1bed
gd83-04-26s2t07.flac:a2f3c6341cb23cea922caeeba309a512
gd83-04-26s2t08.flac:b7ec32cc756398bae5816b9fba275d35
gd83-04-26s2t09.flac:fade0522fc17f0b1c31592b453f9db21
gd83-04-26s2t10.flac:20ee2ef11098cafaf4721413410b12df
gd83-04-26s2t11.flac:c2f47b5a9d62a4d9ccc90e739eafb72b
flac-md5
5e7fb203035b00aa3346b7f95827333e *gd83-04-26s1t01.flac
61128a14f462ab1fb7c32c4f11cd52a3 *gd83-04-26s1t02.flac
faa1a537b772428899d307508bb155b7 *gd83-04-26s1t03.flac
59b3c720085331d44ded9edd9c3e9017 *gd83-04-26s1t04.flac
05d25225472c76aaa5566f3f3ff12e42 *gd83-04-26s1t05.flac
0566137fea6fe8f04ca0f6dcd13455dc *gd83-04-26s1t06.flac
8d540833ab74a56c57f647a6c02f0460 *gd83-04-26s1t07.flac
4e7b8298a39855abe9ef526aaa12e9ee *gd83-04-26s1t08.flac
c5a04cd91e113fe5171ab3b84ae05434 *gd83-04-26s1t09.flac
d850d24c7eac91dec60e436b6b2c5e02 *gd83-04-26s1t10.flac
196ba939c4ce613f0fb7fc4a6b4ec4c2 *gd83-04-26s2t01.flac
f9f66c017889f41db8b6d1b50c09de82 *gd83-04-26s2t02.flac
294b125c3a21b6d20ba9764787f2e19a *gd83-04-26s2t03.flac
e51406685ad222d1acd77ed7cf3ce615 *gd83-04-26s2t04.flac
cfa978879f43fb6ead29f45df879de18 *gd83-04-26s2t05.flac
9a05efde66b1536f1387db8b04201d51 *gd83-04-26s2t06.flac
b313e09d9916b829d26d34384b7bd7d6 *gd83-04-26s2t07.flac
ba1b34d5c4a5031073e25e846e8e6ced *gd83-04-26s2t08.flac
7ac11cfe6fc3198a22b29f67a47d2524 *gd83-04-26s2t09.flac
584d9e9df934709d2a2ce8336fa015ce *gd83-04-26s2t10.flac
e2fd3075cc3c58ac537cfa70ecce8262 *gd83-04-26s2t11.flac

Comments
Add Comment
Other Sources (comments)
SBDMC> Cass> DAT> CDR> EAC>... (1) set2; Sennheiser shotguns >... (0) flac16; Unknown mics... (0) flac16; Seamless fix... (1) flac16; Recording... (0) flac16; Source: 2... (0) flac16/48kHz; Master... (0) flac16; MAC; (FOB)... (0) flac24; MAC; (FOB)... (0) flac24; Master... (0) flac16; Master... (0) flac16/44.1 Master... (0) flac24/48 Master... (0)
Date User Comment