Browse Collections Artists Sources   Search Dates

Add Show    List Management    Help


Grateful Dead 03/28/72
Academy of Music, New York, NY
Comments Add Comment    Source Collectors    Add to Collection    Add to Want List    History
Source # 132729 Other Sources
Entered by Gary Field
Checksums ffp , flac-md5
Disc Counts 0 / 0
Media Size Compressed: 1.17 GB (1254531821 bytes)
Uncompressed: 2.15 GB (2313150940 bytes)
Date Circulated
Date Added
03/25/2015
03/25/2015
Source Summary flac16; Recording Info: SBD -> Master Reel -> Apogee AD500 -> Dat (48k); Transfer Info: Dat (Sony D8) -> Samplitude Professional v10.1 -> FLAC; All Transfers and Mastering By Charlie Miller 
  Archive
Source Information - Download Text | Download Zip
Grateful Dead - March 28, 1972
Academy of Music - New York, NY

Recording Info:
SBD -> Master Reel -> Apogee AD500 -> Dat (48k)

Transfer Info:
Dat (Sony D8) -> Samplitude Professional v10.1 -> FLAC
(3 Discs Audio / 2 Discs FLAC)

All Transfers and Mastering By Charlie Miller
[email protected]
September 9, 2008

Notes:
-- All disc changes are seamless
-- First few seconds of El Paso are missing due to reel flip
-- Last few seconds of The Other One are cut due to reel flip
-- Thanks to Rob Eaton for lending me his Dats

Set 1:
d1t01 - Tuning
d1t02 - Truckin'
d1t03 - Tennessee Jed
d1t04 - Chinatown Shuffle
d1t05 - Black Throated Wind
d1t06 - You Win Again
d1t07 - Mr. Charlie
d1t08 - Mexicali Blues
d1t09 - Brokedown Palace
d1t10 - Next Time You See Me
d1t11 - Cumberland Blues
d2t01 - Looks Like Rain
d2t02 - Big Railroad Blues
d2t03 - El Paso
d2t04 - China Cat Sunflower ->
d2t05 - I Know You Rider
d2t06 - Casey Jones

Set 2:
d2t07 - Tuning
d2t08 - Playing In The Band
d2t09 - Sugaree
d2t10 - The Stranger (Two Souls In Communion)
d3t01 - Sugar Magnolia ->
d3t02 - The Other One
d3t03 - It Hurts Me Too
d3t04 - Not Fade Away
d3t05 - Goin' Down The Road Feeling Bad ->
d3t06 - Not Fade Away

Encore:
d3t07 - Sidewalks Of New York ->
d3t08 - One More Saturday Night


SHNTOOL OUTPUT:
    length     expanded size   cdr  WAVE problems filename
     1:17.26       13643996    ---   --   -----   gd72-03-28d1t01.wav
     9:49.04      103909052    ---   --   -----   gd72-03-28d1t02.wav
     8:41.27       91967948    ---   --   -----   gd72-03-28d1t03.wav
     4:37.27       48926348    ---   --   -----   gd72-03-28d1t04.wav
     8:02.47       85135388    ---   --   -----   gd72-03-28d1t05.wav
     5:52.48       62205740    ---   --   -----   gd72-03-28d1t06.wav
     6:23.42       67660028    ---   --   -----   gd72-03-28d1t07.wav
     5:29.29       58103852    ---   --   -----   gd72-03-28d1t08.wav
     8:36.26       91083596    ---   --   -----   gd72-03-28d1t09.wav
     5:27.42       57781628    ---   --   -----   gd72-03-28d1t10.wav
     7:21.08       77811260    ---   --   -----   gd72-03-28d1t11.wav
     9:13.01       97551596    ---   --   -----   gd72-03-28d2t01.wav
     3:54.08       41296460    ---   --   -----   gd72-03-28d2t02.wav
     6:13.38       65886620    ---   --   -----   gd72-03-28d2t03.wav
     5:03.12       53477468    ---   --   -----   gd72-03-28d2t04.wav
     7:33.37       79996268    ---   --   -----   gd72-03-28d2t05.wav
     6:38.43       70308380    ---   --   -----   gd72-03-28d2t06.wav
     1:06.62       11788268    ---   --   -----   gd72-03-28d2t07.wav
    13:56.32      147545708    ---   --   -----   gd72-03-28d2t08.wav
     9:27.64      100169372    ---   --   -----   gd72-03-28d2t09.wav
    11:25.14      120866972    ---   --   -----   gd72-03-28d2t10.wav
     6:51.59       72639212    ---   --   -----   gd72-03-28d3t01.wav
    29:02.57      307422908    ---   --   -----   gd72-03-28d3t02.wav
    10:28.07      110795708    ---   --   -----   gd72-03-28d3t03.wav
     6:37.67       70188428    ---   --   -----   gd72-03-28d3t04.wav
     7:08.17       75539228    ---   --   -----   gd72-03-28d3t05.wav
     6:31.46       69080636    ---   --   -----   gd72-03-28d3t06.wav
     0:54.60        9666764    ---   --   -----   gd72-03-28d3t07.wav
     4:47.32       50702108    ---   --   -----   gd72-03-28d3t08.wav
   218:33.07     2313150940 B                     (totals for 29 files)





Show Checksums
ffp
gd72-03-28d1t01.flac:aeaea656cd6f4619ae83cbea41cd2f6b
gd72-03-28d1t02.flac:4b32087cf95c57f49bf46a56016f8eab
gd72-03-28d1t03.flac:5a863aeebf54b22fc5847682e586194a
gd72-03-28d1t04.flac:a1cda570454530422bcfe01637d98f30
gd72-03-28d1t05.flac:d4e35db124f324ad9735addc5cc9ada5
gd72-03-28d1t06.flac:40cc5b81db3a2eb8bcd377cc5c72099c
gd72-03-28d1t07.flac:59057339f2cf7446a5a134998b148d31
gd72-03-28d1t08.flac:379c16c076ae487e886e686d6ae3ea5e
gd72-03-28d1t09.flac:f788bf2a1788b78adadf3a5b2b8214fd
gd72-03-28d1t10.flac:e07bd543a3dae93867a462303f1dbc83
gd72-03-28d1t11.flac:4604e952c77edb0268faeed01c25672e
gd72-03-28d2t01.flac:00c1412cef1978d5a550582d32800ff8
gd72-03-28d2t02.flac:53f0c38ae84512df529880f635834248
gd72-03-28d2t03.flac:2f85c05fe9b82a6bd0aba60e4754903f
gd72-03-28d2t04.flac:39085d0563fdfb0f6ac318656babeb6b
gd72-03-28d2t05.flac:033c96f1532e6a681b1c2de2572f952a
gd72-03-28d2t06.flac:b6e9e1a358aa11e3f7666a8e40960bad
gd72-03-28d2t07.flac:4185668742f7b87accbcd650410b63ae
gd72-03-28d2t08.flac:3bceed7209b3dcf9af5cecedd9183b12
gd72-03-28d2t09.flac:4d0d90dfac7516739715adcad47ea681
gd72-03-28d2t10.flac:dd741935695f3b88e07ae7d6ff6d0d5f
gd72-03-28d3t01.flac:34b075b7ab4f032138744a3324cac558
gd72-03-28d3t02.flac:23cc74d8c7a2da2bc92e3dcc7b402aaf
gd72-03-28d3t03.flac:32091ddbea50103cf9b9d2d924b2fac6
gd72-03-28d3t04.flac:459d0c4c516df8a188261d861375f1a6
gd72-03-28d3t05.flac:955758e349b2815e74efb7db34c08b3d
gd72-03-28d3t06.flac:fd927482da7d8c03cea468532851783e
gd72-03-28d3t07.flac:1e06f5079be22b6de1db1748cffac596
gd72-03-28d3t08.flac:297933404b54aed49eada9060c58a4a7
flac-md5
b5c1f06a4a6a48308e975bc432875e60 *gd72-03-28d1t01.flac
c9cd278b598fafcb9ddef561bf72887b *gd72-03-28d1t02.flac
e1d6e77b54388785dc2a2c2069538eed *gd72-03-28d1t03.flac
302d1b9464afd87a2eeeccb42151c673 *gd72-03-28d1t04.flac
0ac66a0df510e20134b25838d90538f6 *gd72-03-28d1t05.flac
226e3cf1ee0e116300b06e333ca994b1 *gd72-03-28d1t06.flac
c01ad13166d9b2ea620e428b662a1891 *gd72-03-28d1t07.flac
f18eee0a74f0d6234639c9dd034cce50 *gd72-03-28d1t08.flac
99692b9d2baaca22d14e3d1cfcb4ef6e *gd72-03-28d1t09.flac
562491c3b598b3c50186580a331379c8 *gd72-03-28d1t10.flac
5e2097f57f8067c69ff13a9cc7633425 *gd72-03-28d1t11.flac
c1c3ceb41b3085ca0a5abc7918f5603f *gd72-03-28d2t01.flac
16aa7c470b31af91e7892cfb9fe529db *gd72-03-28d2t02.flac
a74cd0b74f617cc3bfa72791a4e9ebad *gd72-03-28d2t03.flac
8860f71e5258e63e435307f3de36bdd4 *gd72-03-28d2t04.flac
dc10c04881de20efb8a3b632e486f806 *gd72-03-28d2t05.flac
2010fb663de431245a557040eb8ff9e1 *gd72-03-28d2t06.flac
94ea8d916b52c37520722e6b6431ed98 *gd72-03-28d2t07.flac
320d05f7810e69d9d6e263f37d4cc71b *gd72-03-28d2t08.flac
77552037912912b68f5dce5daa7ac8aa *gd72-03-28d2t09.flac
f42339f37369f88a029cc47e476296e8 *gd72-03-28d2t10.flac
27ed39b5a7aeac0ef42ff00cdc225e5a *gd72-03-28d3t01.flac
51b89c6e570f44c4882e07d955006b17 *gd72-03-28d3t02.flac
efdd4081409beb71c6d6efe09298b779 *gd72-03-28d3t03.flac
5102a95d32bf9f0e21038812128953d7 *gd72-03-28d3t04.flac
a0aee160417df826f1c420568af3ed0a *gd72-03-28d3t05.flac
ed9884a6b6a919c4fcee4ea5a685ed16 *gd72-03-28d3t06.flac
77e7ff0d9bd209a183ad42350dbe9173 *gd72-03-28d3t07.flac
4688d2edafe17e553f6c30a9b6930d9b *gd72-03-28d3t08.flac

Comments
Add Comment
Other Sources (comments)
AUD C/5 > SoundForge > CDR,... (1) source: aud C/5 >... (0)
Date User Comment
05/02/2016 Wharfrat73 Corrected Live Music Archive link.