Browse Collections Artists Sources   Search Dates

Add Show    List Management    Help


Grateful Dead 04/14/71
Davis Gymnasium, Lewisburg, PA
Comments Add Comment    Source Collectors    Add to Collection    Add to Want List    History
Source # 132733 Other Sources
Entered by Matt Vernon
Checksums ffp , flac-md5
Disc Counts 0 / 0
Media Size Compressed: 882.95 MB (925840311 bytes)
Uncompressed: 1.76 GB (1891786496 bytes)
Date Circulated
Date Added
03/28/2015
03/28/2015
Source Summary flac16/48kHz; Static reduced, speed corrected, slightly eq'ed & gain normalized version of source ID 132543 (SBD> MR> DAT) by Dan McDonald 
  Archive
Source Information - Download Text | Download Zip
Grateful Dead
1971-04-14
Christy Mathewson Memorial Stadium
Bucknell University
Lewisburg, PA

7 Inch 1/4 Track Reel Master @ 7.5 ips (Recorded  By Bob Mathews)
Transferred By Dick Latvala (Master Reel Playback on a Technics 1506 Reel 2 Reel-Sony PCM-R500 DAT Deck @ 48KHz).
This is a Jim Wise transfer of his DAT via a Sony PCM R-500-Digital Audio Labs Card deluxe-WAV @ 24bit/96KHz

All editing and conversion work with Diamond Cut Forensics 8.5.
Converted to 24-bit, 48kHz using  Triple precision math; editing done in 24/48 with 32-bit interpolation.
Converted to 16/48 with triple precision, 32-bit interpolation and DC8.5 Forensics custom dither (Noise Shape 2).

Editing:
Speed changes to stabilize the speed in Set I.  Speed was off slightly in a linear fashion, so speed change varied
from -.14% to +1.0% over a given 45 minute period. Set II did not need any speed correction.  I noticed instances
suggesting that there were two recorders with some editing done on the master tape.  Jim doesn't think it was done.
After all the editing was complete, I did a very light eq to increase bass and treble, and then gain normalized each
channel to -.5 dB.

Questions or comments to [email protected]
___________________________________________________________________________________________________________________________

--Set 1--
t101 - Intro
t102 - Truckin
t103 - Deal*
t104 - Me And Bobby McGee*
t105 - Next Time You See Me*
t106 - Bertha*
t107 - Playing In The Band*
t108 - /Sing Me Back Home*#
t109 - Me And My Uncle*
t110 - China Cat Sunflower->
t111 - I Know You Rider
t112 - I Second That Emotion
t113 - Casey Jones^

--Set 2--
t201 - /Bird Song
t202 - Sugar Magnolia
t203 - Cryptical Envelopment->*
t204 - Drums->*
t205 - The Other One->*
t206 - Wharf/Rat*
t207 - Hard To Handle
t208 - Not Fade Away->
t209 - Goin Down The Road Feeling Bad->
t210 - Not Fade Away->
t211 - Johnny B. GoodeSpee

* multiple instances of static - possibly discharge from record or playback head.  I minimized these.  Some are gone
  completely, others are still audible but minimized.  I am sure I missed some but these are all I can find within a
  limited time frame.
# Just after reel change/tape flip, cb-radio type noise. Minimized but still there
^ 1 electro-glitch instance (may be different kind from the others) fixed
___________________________________________________________________________________________________________________________

Other notes:
-In between Bird Song and Sugar Mag, there is loud feedback.  I reduced the level so it did not determine the overall
loudness of the recording.
-Several songs clip badly in the vocals.  There was not much that could be done with it.
-Truckin' - level change at the beginning was smoothed out
-Deal  has an edit or glitch at the very beginning of the first solo.  At the end of Deal - hum and buzz starts.
-Bobby McGee - after song is over, Phil's bass and stage mics are increased way beyond what the system could take for
about 10-15 seconds.  I reduced these to sound more like what they probably sounded like in the audience.
-Noticeable Reel Change/Tape Flip after Sing me Back Home.  Hum/buzz noise is lower afterwards.
-Cryptical Envelopment - very short edit or tape glitch at "summer sun looked down on him"
-WharfRat appears to be a very quick cut/glitch just before 'got no dime' and cuts at "no friend of mine" - probably reel
change/flip (missing several seconds)
___________________________________________________________________________________________________________________________

    length     expanded size    cdr  WAVE problems  fmt   ratio  filename
     0:46.685       8963516 B   cxx   --   ---xx   flac  0.3663  gd1971-04-14.t101.flac
    10:44.754     123792860 B   cxx   --   ---xx   flac  0.4454  gd1971-04-14.t102.flac
     6:47.214      78185228 B   cxx   --   ---xx   flac  0.4187  gd1971-04-14.t103.flac
     6:31.743      75214652 B   cxx   --   ---xx   flac  0.4378  gd1971-04-14.t104.flac
     4:15.523      49060412 B   cxx   --   ---xx   flac  0.4972  gd1971-04-14.t105.flac
     7:43.908      89070284 B   cxx   --   ---xx   flac  0.4516  gd1971-04-14.t106.flac
     4:32.975      52411256 B   cxx   --   ---xx   flac  0.4784  gd1971-04-14.t107.flac
     9:52.900     113836844 B   cxx   --   ---xx   flac  0.4613  gd1971-04-14.t108.flac
     4:13.293      48632348 B   cxx   --   ---xx   flac  0.4790  gd1971-04-14.t109.flac
     6:04.217      69929708 B   cxx   --   ---xx   flac  0.5325  gd1971-04-14.t110.flac
     4:42.950      54326540 B   cxx   --   ---xx   flac  0.5279  gd1971-04-14.t111.flac
     6:59.648      80572508 B   cxx   --   ---xx   flac  0.5162  gd1971-04-14.t112.flac
     5:50.301      67257816 B   cxx   --   ---xx   flac  0.5237  gd1971-04-14.t113.flac
    12:45.478     146971820 B   cxx   --   ---xx   flac  0.4117  gd1971-04-14.t201.flac
     8:18.991      95806412 B   cxx   --   ---xx   flac  0.5020  gd1971-04-14.t202.flac
     2:03.995      23806988 B   cxx   --   ---xx   flac  0.4519  gd1971-04-14.t203.flac
     5:44.825      66206492 B   cxx   --   ---xx   flac  0.4781  gd1971-04-14.t204.flac
    16:15.455     187287452 B   cxx   --   ---xx   flac  0.4797  gd1971-04-14.t205.flac
    11:06.780     128021824 B   cxx   --   ---xx   flac  0.4774  gd1971-04-14.t206.flac
    11:00.716     126857516 B   cxx   --   ---xx   flac  0.5790  gd1971-04-14.t207.flac
     3:50.104      44180012 B   cxx   --   ---xx   flac  0.5499  gd1971-04-14.t208.flac
     7:27.296      85880972 B   cxx   --   ---xx   flac  0.5586  gd1971-04-14.t209.flac
     2:08.049      24585500 B   cxx   --   ---xx   flac  0.5623  gd1971-04-14.t210.flac
     4:25.247      50927536 B   cxx   --   ---xx   flac  0.6280  gd1971-04-14.t211.flac
   164:13.049    1891786496 B                            0.4894  (24 files)




Show Checksums
ffp
gd1971-04-14.t101.flac:6e1dce0f714d7de60913b7db3b5675a5
gd1971-04-14.t102.flac:f3baf7a96d87ae007700e365f2b0ad26
gd1971-04-14.t103.flac:a5ff5ca88e361b6803d26b59cc8024f5
gd1971-04-14.t104.flac:0572eea5d3238733a7c9c48a47403df6
gd1971-04-14.t105.flac:5924f73c351d648292cf64676a5cf558
gd1971-04-14.t106.flac:2825dfa1c1600e3de2b3fd6788540938
gd1971-04-14.t107.flac:adad0aade248e34da400bf9d647b52cd
gd1971-04-14.t108.flac:89f3d5879abfe3a0aca24fe0f2bc93cb
gd1971-04-14.t109.flac:e63070e92d07f6523538f7c5e0a4e76a
gd1971-04-14.t110.flac:2ea40250cd33197ae13900c030eedb75
gd1971-04-14.t111.flac:6a6d6a6cee54f00c82f8858a3504f7d2
gd1971-04-14.t112.flac:1a6767057f59815946874eab0b4b2811
gd1971-04-14.t113.flac:357819b38c6e05a7d153d751050c4d4d
gd1971-04-14.t201.flac:6cd624fa1b9c72c62bcf0a33e058a507
gd1971-04-14.t202.flac:77e3cbec309a4d3e2d482445074fbe24
gd1971-04-14.t203.flac:cf5f5a35d32206e684d76bfb5d89d7e9
gd1971-04-14.t204.flac:a7f2e12967ff6e4ed71728b4c5f54c21
gd1971-04-14.t205.flac:3b85bb901cc68a0c3c97fdc33552e7ff
gd1971-04-14.t206.flac:47dca33a8ecb474997aa67e36b470051
gd1971-04-14.t207.flac:83fd29fddaeef681ce620dd9749b4b50
gd1971-04-14.t208.flac:eebc2b6b26124f39e77c7eef958f6da1
gd1971-04-14.t209.flac:968c24e8aadc4acc07b8da6354aee0cc
gd1971-04-14.t210.flac:8390e53855e35e27a05390633beba346
gd1971-04-14.t211.flac:1a4236254f86575165ddccb5dabcf11d
flac-md5
3553af9899e58aede1e9ee8fc7457fb8 *gd1971-04-14.t101.flac
16399e03c23b28dcaf9e4fe68b239dbf *gd1971-04-14.t102.flac
fb068ce0ef5afb7f448a49e8e1932eae *gd1971-04-14.t103.flac
953bfae80da10f6c9e7a659a248f52fa *gd1971-04-14.t104.flac
c0f4da28844c2d699df29c1bc8f55bf5 *gd1971-04-14.t105.flac
22f11bac60de7957f2e78bd346098d32 *gd1971-04-14.t106.flac
04c3f547086404e37a7d705fad142649 *gd1971-04-14.t107.flac
0fb35ad6a02d87b0dbfc1fd7cc8cf0fe *gd1971-04-14.t108.flac
a712032ab5d46e62833a80a061f8de3b *gd1971-04-14.t109.flac
db51c6f192d3e0e0c6aa16613bb27ce8 *gd1971-04-14.t110.flac
7900ca58ec108f26573fdeccbe6400ea *gd1971-04-14.t111.flac
3f28370d6f96712cc09a827cdd7473e2 *gd1971-04-14.t112.flac
e4bbb3b0f19291be380b4e1dd8a925b8 *gd1971-04-14.t113.flac
d007ddadbd1f1006bf53b732f4805e91 *gd1971-04-14.t201.flac
3ac24e2b172ffed3e74c65769462fcdd *gd1971-04-14.t202.flac
a313a0bae6bc5fc872dbaf16a54619ad *gd1971-04-14.t203.flac
179e8f0cca2ac39b0779918b7085eb45 *gd1971-04-14.t204.flac
7f7b65d5294d8f791e325b6cf5e089b9 *gd1971-04-14.t205.flac
05ff9bd58799574782d2fcdb2a9c3a39 *gd1971-04-14.t206.flac
1c510cab0fe69ebea47b0aa29db8b056 *gd1971-04-14.t207.flac
11ecf85e975be8e524ca38ffc8168c5d *gd1971-04-14.t208.flac
a509dbaf462223c367daf95d5f1c2083 *gd1971-04-14.t209.flac
1c6e2f63ebe3efd09164ac8ae8b99df3 *gd1971-04-14.t210.flac
da80c35b56145a446457beaf0492999b *gd1971-04-14.t211.flac

Comments
Add Comment
Other Sources (comments)
SBD> MR> DAT> CDR; several... (7) flac16; Recording... (0) flac16/48kHz: 7 Inch... (0)
Date User Comment