Browse Collections Artists Sources   Search Dates

Add Show    List Management    Help


Phish 11/19/94
Indiana University, Parking Lot, Bloomington, IN
Comments Add Comment    Source Collectors    Add to Collection    Add to Want List    History
Source # 132775 Other Sources
Entered by Matt Vernon
Checksums FFP , FLAC MD5
Disc Counts 0 / 0
Media Size
Date Circulated
Date Added

03/31/2015
Source Summary flac16, 48lHz; (m/s) AKG C-522 > Sony TCD-D7 > DAT(m); DAT(m) > R44 > Audacity (m/s decoding) > FLAC; Source and Transfer by Jason Picklemic Loomis 
Source Information - Download Text | Download Zip
Phish
November 19, 1994
Indiana University Auditorium - outside bus
Post Show - Parking Lot Set
Bloomington, IN

Source: AKG C-522 MS > Sony TCD-D7 (48k, M/S)
2015 Transfer: DAT > R44 > Audacity 2.0.1 > Xact 2.34 > FLAC
Recorded and Transferred: Jason Picklemic Loomis  picklemic2 @ gmail

01. Blackberry Blossom (in progress)
02. Tennessee Waltz - Rev sings
03. The Old Home Place - Mike sings
04. Dooley-rev sings -lead-Trey, Mike, Jon is saying the "dooley"
05. Mountain Dew - Rev sings
06. John Hardy- Mike sings/Trey asks Brad for his fiddle
07. banter
08. Sweet Baby's Arms - Rev sings Phish sings backup. guitar lead by Trey
09. Long Journey Home - Rev sings lead on first verse
                       Trey sings second verse - guitar lead Trey -
                       Jon sings third verse
                       mandolin break - Jon - zambi happens
10. Little Tiny Butter Biscuits(written by Rev Mosier)
          Trey on fiddle / zambi happens
          bus driver says "no flash photograhy" on the bus PA
11. I'm Blue I'm Lonesome - Phish with Rev/jew's harp - ?
12. Midnight Moonlight - Rev sings - Phish and crowd
13 . Will The Circle Be Unbroken -Rev sings lead - bus engine starts. bus blows horn to leave


Jam outside the tour bus with:
Mike (banjo and electric bass)
Page (upright bass)
Trey (fiddle and guitar)
Fish (mandolin)
Rev. Jeff Mosier (banjo)
Eric Merrill (fiddle and guitar)
and Jeremy (banjo and jaw harp)

Suspected to be the 1st correct version of this recording!  Previously circulating versions (definitely SHN ID 6766) are un-decoded Mid-Side versions, not suited for stereo playback.
Seeded to etree for Jason by taperjoe.
Enjoy!!

    length     expanded size    cdr  WAVE problems  fmt   ratio  filename
     2:03.194      23653300 B   cxx   --   ---xx   flac  0.5056  ph1994-11-19t01.flac
     3:31.114      40533868 B   cxx   --   ---xx   flac  0.4734  ph1994-11-19t02.flac
     4:42.925      54321704 B   cxx   --   ---xx   flac  0.4986  ph1994-11-19t03.flac
     3:10.355      36548136 B   cxx   --   ---xx   flac  0.5402  ph1994-11-19t04.flac
     2:56.928      33970308 B   cxx   --   ---xx   flac  0.5303  ph1994-11-19t05.flac
     3:16.491      37726400 B   cxx   --   ---xx   flac  0.5563  ph1994-11-19t06.flac
     2:29.936      28787748 B   cxx   --   ---xx   flac  0.4855  ph1994-11-19t07.flac
     4:09.984      47996900 B   cxx   --   ---xx   flac  0.5468  ph1994-11-19t08.flac
     4:28.808      51611260 B   cxx   --   ---xx   flac  0.5439  ph1994-11-19t09.flac
     5:54.706      68103596 B   cxx   --   ---xx   flac  0.5150  ph1994-11-19t10.flac
     3:36.623      41591708 B   cxx   --   ---xx   flac  0.5497  ph1994-11-19t11.flac
     5:46.534      66534488 B   cxx   --   ---xx   flac  0.5382  ph1994-11-19t12.flac
     3:22.083      38799912 B   cxx   --   ---xx   flac  0.5443  ph1994-11-19t13.flac
    49:29.681     570179328 B                            0.5264  (13 files)

Show Checksums
FFP
ph1994-11-19t01.flac:af18d30265f62715ea2fd3f307ead9c2
ph1994-11-19t02.flac:efec078eff2e7e3c6e8f74a62470c3e3
ph1994-11-19t03.flac:b1ac5b377666ad226dcced27d0a847e8
ph1994-11-19t04.flac:017d39e9e57e166a21ba80860cb41397
ph1994-11-19t05.flac:99e7d6f6b81ba1077bd6124b2636eb05
ph1994-11-19t06.flac:f819e22743a92a051dff4a75d5fb4206
ph1994-11-19t07.flac:adc5d6af915c92132574c57e64ed2f74
ph1994-11-19t08.flac:82e55905741136d5f3e53bd26ff206d0
ph1994-11-19t09.flac:9d346a53ef2c79370dbb924337f2ffcc
ph1994-11-19t10.flac:a31e12a980dbe50c74fa65ae4347cb92
ph1994-11-19t11.flac:539f334910c612d0ca8d31b745f3f940
ph1994-11-19t12.flac:9c8aacb266b88692bb8281da46246056
ph1994-11-19t13.flac:b8bd31be6f87750f97c60da632993428
FLAC MD5
ac426e7d17671e1a82ef43e99e247f11 *ph1994-11-19t01.flac
29c6c07f256a67d9edf56b75ce1121be *ph1994-11-19t02.flac
5845c5ccc55984940562704888674521 *ph1994-11-19t03.flac
6be3ea61f787b57cc281f5c447f9c2ce *ph1994-11-19t04.flac
69cfaf8c7eba5dcdfa1e482a2dc5514e *ph1994-11-19t05.flac
17d6bd01d75330926e31894d5a6ce0e7 *ph1994-11-19t06.flac
dacd7af7d501726efaff37a592f538d9 *ph1994-11-19t07.flac
0750541e31aa0bed78aae06c96f35c3c *ph1994-11-19t08.flac
017a92984e3c99d728ab8cabf4fcd4b9 *ph1994-11-19t09.flac
a67a7564a85189ded7ec4de88b74592c *ph1994-11-19t10.flac
895b95915746058ae9df862dd73495c4 *ph1994-11-19t11.flac
257922bae18189eca840d8cd4afc6848 *ph1994-11-19t12.flac
a26e55c8dcb28c4931f0dcd74aef4024 *ph1994-11-19t13.flac

Comments
Add Comment
Other Sources (comments)
"Parking Lot Jam"; AKG 322... (1) "Parking Lot Jam"; AKG 522... (1)
Date User Comment