Browse Collections Artists Sources   Search Dates

Add Show    List Management    Help


Grateful Dead 09/30/80
Warfield Theater, San Francisco, CA
Comments Add Comment    Source Collectors    Add to Collection    Add to Want List    History
Source # 132779 Other Sources
Entered by Matt Vernon
Checksums ffp , flac-md5
Disc Counts 0 / 0
Media Size Compressed: 1.12 GB (1204807188 bytes)
Uncompressed: 2.11 GB (2260426244 bytes)
Date Circulated
Date Added
04/01/2015
04/01/2015
Source Summary flac16; 2 source matrix by Dusborne; Soundboard(shinid:132375) SBD -> Cassette Master -> FLAC, FLAC -> Adobe Audition v5.5 -> Samplitude Pro X2 Suite -> FLAC and Audience(shinid:089554) Master Cassette > Nakamichi 700s > Sony TC D-5, Pioneer RT-701 Reel to Reel > Soundblaster Soundcard > Soundforge > CD; CD Extraction with EAC > TLH > FLAC level 8 
  Archive
Source Information - Download Text | Download Zip
Grateful Dead
September 30, 1980
Warfield Theatre
San Francisco, CA

2 Source Matrix

Soundboard(shinid:132375)
--------------------------------------------------------------------------------------------------
gd1980-09-30.132375.sbd.miller.flac16

Recording Info:
SBD -> Cassette Master -> FLAC

Transfer Info:
FLAC -> Adobe Audition v5.5 -> Samplitude Pro X2 Suite -> FLAC
(3 Discs Audio / 1 DVD FLAC)

All Transfers and Mastering By Charlie Miller
[email protected]
February 1, 2015

Audience Patches:
Estimated Prophet (7:40 - 8:05)
Black Peter (9:10 - end of track)
Good Lovin' (0:00 - 0:06)

Notes:
-- All disc changes are seamless
-- Thanks to those who worked on this before me
-- Thanks to Joe B. Jones for his help with the pitch correction

Audience(shinid:089554)
----------------------------------------------------------------------------------------------------
gd80-09-30.aud-nak700.ellner-marino-gmb.89554.sbeok.flac16


Source:
Master Cassette > Nakamichi 700s > Sony TC D-5

Location:
FOB either on the floor or 1st row balcony

1st Generation copy to Teac Reel to Reel

Transfer:
Pioneer RT-701 Reel to Reel > Soundblaster Soundcard > Soundforge > CD
CD Extraction with EAC > TLH > FLAC level 8

Recorded and archived to Reels by Ron Ellner,
the master cassettes were stolen.

Transfer: Reels to PC by Mike Marino
CD Extraction and seeded by Bill Koucky
Green Mountain Bros. December 2007

Notes:
-Slight retracking from source CD to allow encore to be placed at end
of disc 3.
-Crossfades were applied before Samson & Delilah and Brokedown Palace.
-Discs are seamless. Static pops here and there.
--------------------------------------------------------------------------------------------------------

---Thank you Charlie Miller for the SBD.
---Thank you Joe B. Jones for SBD pitch correction.
---Thank you Ron Ellner for recording the show.
---Thank you Mike Marino for the AUD transfer.
---Thank you Bill Koucky for seeding the AUD.
---Thank you Green Mountain Bros. for your work on the AUD.
---Thank you Bruce "The Big Woods" for the artwork.
---Thank you Germain for your advice, encouragement, guidance and seeding.

Matrix by dusborne
03-06-2015
------------------------------------------------------------------------------------------------------

Acoustic Set (Set 1)
101 - gd80-09-30s1t01 - On The Road Again
102 - gd80-09-30s1t02 - Jack-A-Roe
103 - gd80-09-30s1t03 - Monkey And The Engineer
104 - gd80-09-30s1t04 - Bird Song
105 - gd80-09-30s1t05 - Dark Hollow
106 - gd80-09-30s1t06 - Rosalie McFall
107 - gd80-09-30s1t07 - Heaven Help The Fool
108 - gd80-09-30s1t08 - China Doll
109 - gd80-09-30s1t09 - Oh Babe It Ain't No Lie ->
110 - gd80-09-30s1t10 - Ripple

Electric Set 1 (Set 2)
201 - gd80-09-30s2t01 - Alabama Getaway ->
202 - gd80-09-30s2t02 - Promised Land
203 - gd80-09-30s2t03 - Peggy-O
204 - gd80-09-30s2t04 - Beat It On Down The Line
205 - gd80-09-30s2t05 - Friend Of The Devil
206 - gd80-09-30s2t06 - Lazy Lightnin' ->
207 - gd80-09-30s2t07 - Supplication
208 - gd80-09-30s2t08 - Loser
209 - gd80-09-30s2t09 - Little Red Rooster
210 - gd80-09-30s2t10 - Big Railroad Blues

Electric Set 2 (Set 3)
301 - gd80-09-30s3t01 - Feel Like A Stranger ->
302 - gd80-09-30s3t02 - Franklin's Tower
303 - gd80-09-30s3t03 - Samson And Delilah
304 - gd80-09-30s3t04 - He's Gone ->
305 - gd80-09-30s3t05 - Estimated Prophet ->
306 - gd80-09-30s3t06 - Drums ->
307 - gd80-09-30s3t07 - Space ->
308 - gd80-09-30s3t08 - The Other One ->
309 - gd80-09-30s3t09 - Black Peter ->
310 - gd80-09-30s3t10 - Good Lovin'

Encore:
311 - gd80-09-30s3t11 - Brokedown Palace
-----------------------------------------------------------------------------------------------

Tagging notes:
Show information is embedded within the header of each flac file.
It will display on any player capable of directly playing flac files.
If converted to wav during processing, all tags will be
stripped, however audio data will remain unaffected.
If you must transcode to a lossy format, do so directly Flac > Lossy.
Use ffp to validate audio integrity.
Md5 values will change if tagging is altered.
Dave Usborne 03-06-2015
--------------------------------------------------------------------------------------------------

    length     expanded size    cdr  WAVE problems  fmt   ratio  filename
     3:56.51       41750396 B   ---   --   ---xx   flac  0.5552  gd80-09-30s1t01.flac
     4:35.26       48571196 B   ---   --   ---xx   flac  0.5768  gd80-09-30s1t02.flac
     2:58.61       31542716 B   ---   --   ---xx   flac  0.5653  gd80-09-30s1t03.flac
     9:10.32       97095308 B   ---   --   ---xx   flac  0.5400  gd80-09-30s1t04.flac
     4:49.41       51076076 B   ---   --   ---xx   flac  0.5593  gd80-09-30s1t05.flac
     3:01.42       32027228 B   ---   --   ---xx   flac  0.5928  gd80-09-30s1t06.flac
     6:37.50       70148444 B   ---   --   ---xx   flac  0.5497  gd80-09-30s1t07.flac
     6:18.18       66721580 B   ---   --   ---xx   flac  0.5308  gd80-09-30s1t08.flac
     6:24.58       67874060 B   ---   --   ---xx   flac  0.5533  gd80-09-30s1t09.flac
     4:46.53       50575100 B   ---   --   ---xx   flac  0.5577  gd80-09-30s1t10.flac
     4:22.28       46282700 B   ---   --   ---xx   flac  0.5604  gd80-09-30s2t01.flac
     4:23.00       46393244 B   ---   --   ---xx   flac  0.5723  gd80-09-30s2t02.flac
     7:09.11       75701516 B   ---   --   ---xx   flac  0.5330  gd80-09-30s2t03.flac
     3:53.13       41131820 B   ---   --   ---xx   flac  0.5830  gd80-09-30s2t04.flac
     9:36.19      101651132 B   ---   --   ---xx   flac  0.5176  gd80-09-30s2t05.flac
     3:29.49       36982892 B   ---   --   ---xx   flac  0.5654  gd80-09-30s2t06.flac
     8:27.02       89439548 B   ---   --   ---xx   flac  0.5468  gd80-09-30s2t07.flac
     7:38.11       80817116 B   ---   --   ---xx   flac  0.5165  gd80-09-30s2t08.flac
     8:23.48       88842140 B   ---   --   ---xx   flac  0.5526  gd80-09-30s2t09.flac
     4:05.68       43377980 B   ---   --   ---xx   flac  0.5571  gd80-09-30s2t10.flac
     9:21.28       99026300 B   ---   --   ---xx   flac  0.5536  gd80-09-30s3t01.flac
     7:47.46       82487036 B   ---   --   ---xx   flac  0.5371  gd80-09-30s3t02.flac
     8:01.51       84968396 B   ---   --   ---xx   flac  0.5606  gd80-09-30s3t03.flac
    11:25.68      120993980 B   ---   --   ---xx   flac  0.5047  gd80-09-30s3t04.flac
    11:01.02      116605148 B   ---   --   ---xx   flac  0.5335  gd80-09-30s3t05.flac
    13:01.08      137787260 B   ---   --   ---xx   flac  0.4686  gd80-09-30s3t06.flac
     9:57.41      105407276 B   ---   --   ---xx   flac  0.4572  gd80-09-30s3t07.flac
     5:28.41       57955676 B   ---   --   ---xx   flac  0.5395  gd80-09-30s3t08.flac
     9:14.62       97871468 B   ---   --   ---xx   flac  0.4925  gd80-09-30s3t09.flac
     8:27.30       89505404 B   ---   --   ---xx   flac  0.5497  gd80-09-30s3t10.flac
     5:39.07       59816108 B   ---   --   ---xx   flac  0.5076  gd80-09-30s3t11.flac
   213:34.15     2260426244 B                            0.5330  (31 files)



Show Checksums
ffp
gd80-09-30s1t01.flac:2b5e008c67720055cd29d6b620b5da4b
gd80-09-30s1t02.flac:f3c5bd816e4f708c843f4c0156052564
gd80-09-30s1t03.flac:1c0d4dbe1e2f1707117a976b37dbe8c4
gd80-09-30s1t04.flac:3ba58e08e9fdbd55afaf2848ab1a481a
gd80-09-30s1t05.flac:0becd2ab53ed576e6a25c89372ec717e
gd80-09-30s1t06.flac:0bb2429657b118d0f27ae583a1788599
gd80-09-30s1t07.flac:8729bbfa51d8e383d145ed16cb95bc44
gd80-09-30s1t08.flac:97028d7750c2d1bcb306957c43bfe078
gd80-09-30s1t09.flac:492c2c416b073c23c5a7d0008f7ad6a0
gd80-09-30s1t10.flac:96a943add98c309ac15aa4275dbf587a
gd80-09-30s2t01.flac:0ae8803201943695313ef6e7393d6ccf
gd80-09-30s2t02.flac:7ae590e5dba3501d9134596a3e7b4598
gd80-09-30s2t03.flac:0a65f6df8ae84142af786279a1709d53
gd80-09-30s2t04.flac:b8be06e46a1ccd20c4027922694d0d3e
gd80-09-30s2t05.flac:a5d5f0f3c30b2f07cb616bad6ab313a1
gd80-09-30s2t06.flac:c112e5ea33b5a605bc94dbb917ef8d9c
gd80-09-30s2t07.flac:5406e9d722e26d2e984769006d98b6f9
gd80-09-30s2t08.flac:8b4308d7dfc8593489b762dd275c7101
gd80-09-30s2t09.flac:e44b0c09a231c335cceee799162f2ced
gd80-09-30s2t10.flac:57d84fc1d79e369c093455717b3ec9cf
gd80-09-30s3t01.flac:1dfbe0ed731be851d0bdd7d4c0e8a7d6
gd80-09-30s3t02.flac:a0ed26a19ff0ea38f1c123de45ef39e1
gd80-09-30s3t03.flac:52d7c379da4736b609c2813661340ff3
gd80-09-30s3t04.flac:0b5e22504d6616b9c86c98920400647c
gd80-09-30s3t05.flac:f9eb931940e3103e47effe98fb4891c0
gd80-09-30s3t06.flac:1dc3b98d07456d6572028de869641d70
gd80-09-30s3t07.flac:cb617f224a3c7d9ea49b5f83d8b831c3
gd80-09-30s3t08.flac:98f4151ff7c22789400ca7fadedc7c39
gd80-09-30s3t09.flac:8a9ef6af6a9dc54459d9d74be242abde
gd80-09-30s3t10.flac:1ba276ad450a3f7cf38ce44cfaa7f3b7
gd80-09-30s3t11.flac:db59eb5fa4ed3511f90e8b3ac70e9fb5
flac-md5
602af4fbd5ad54e4d537a79cb51e167e *gd80-09-30s1t01.flac
3392c865ce58e9712e7e36619562dd0f *gd80-09-30s1t02.flac
f409fc1b2d7b5553b0d135ab74ca7f8c *gd80-09-30s1t03.flac
d515fad33b458f78f95304db8fe87be9 *gd80-09-30s1t04.flac
850118e67778ffab66ffbf5397cdef57 *gd80-09-30s1t05.flac
f0bbe89801ee639eaf5244107fc83fb8 *gd80-09-30s1t06.flac
fbfa3274a0181b611b92a809466ff5aa *gd80-09-30s1t07.flac
8218de414f4cd8932a54ee45ed8d5455 *gd80-09-30s1t08.flac
dccbc7657ac13a1b329bfded133e9ab8 *gd80-09-30s1t09.flac
b74f743722c8c7534922c041af2d0010 *gd80-09-30s1t10.flac
ab76bade54ef7f5c141ae933c30232d6 *gd80-09-30s2t01.flac
28446543bbee6a136ab85fecc2c8aa04 *gd80-09-30s2t02.flac
a2df6a3df1942fda4fc577adc10b52e8 *gd80-09-30s2t03.flac
648a567cd0a4b62e93efda7f5dc03a0f *gd80-09-30s2t04.flac
116d8816c9dd1544ab6bf04915105658 *gd80-09-30s2t05.flac
bb4bfce14e2e313260f94a16342babc9 *gd80-09-30s2t06.flac
63b75aa26aacb8b19bdfc011338b40ae *gd80-09-30s2t07.flac
3210af446ce6dcc0c9c0dbe02f0ba802 *gd80-09-30s2t08.flac
a4b4d4099474a87509b4c47e54ed851f *gd80-09-30s2t09.flac
2906df9a2a52332e3f9b50bfccf62dce *gd80-09-30s2t10.flac
26ffa0d8fffe0a32ef92db186370b024 *gd80-09-30s3t01.flac
5df674eb0bff2541e28be7426bcf4613 *gd80-09-30s3t02.flac
8a6edd1b1249ad01efa6cf9bcda2f7ce *gd80-09-30s3t03.flac
cbc44b4bdba722eddb69237c7efae988 *gd80-09-30s3t04.flac
1d945c19ab5b90d036e915406f01c600 *gd80-09-30s3t05.flac
6fec2fbf54f7ad5f9c6fdc913b0c3e62 *gd80-09-30s3t06.flac
94dbb9e50da64cbd5c38af75690e6295 *gd80-09-30s3t07.flac
90e7440efb33fefc57c4dd6172dd6bca *gd80-09-30s3t08.flac
b53bfb15e74d9062d5705634d562a370 *gd80-09-30s3t09.flac
430cdd1903c9a108cddff500cbe47b51 *gd80-09-30s3t10.flac
86fceace6969711e1714482648e1db0a *gd80-09-30s3t11.flac

Comments
Add Comment
Other Sources (comments)
Source: Recording... (0) flac16; Recording by... (0) flac16; Acoustic Set... (0) flac16; Recording... (0)
Date User Comment