Browse Collections Artists Sources   Search Dates

Add Show    List Management    Help


Grateful Dead 03/28/90
Nassau Coliseum, Uniondale, NY
Comments Add Comment    Source Collectors    Add to Collection    Add to Want List    History
Source # 132872 Other Sources
Entered by Matt Vernon
Checksums flac-md5 , ffp
Disc Counts 0 / 0
Media Size Compressed: 891 MB (934281216 bytes)
Uncompressed: 1.47 GB (1573891072 bytes)
Date Circulated
Date Added
04/22/2015
04/22/2015
Source Summary flac16; Matrix 2 Source Mix - SBD (shnid=87643) Recording Info: SBD -> Dat -> Cassette Master (TDK MA-R90) Transfer Info: Cassette Master (Nakamichi DR-1) -> Apogee MiniMe (24bit/48k) -> Samplitude Professional v9.11 -> FLAC/16 All Transfers And Mastering By Charlie Miller + AUD (shn id 87701) AUD (Changed mics between sets). Set One: Nakamichi CM-300's with CP-4 shotguns. Set Two: Sennheiser MD-441's. Mics > Sony TC-D5M > Maxell MX 90/100 tape, with no Dolby. Mics on 7-foot stands, in front row of OTS. Transfer: MAC > Sony TC-D5M (Dolby off) > Marantz CDR-500 > EAC > Wav > Soundforge > CD-Wave > TLH > FLAC. Taped and transferred by Andrew F. - matrix mixing by Kevin Tobin 
  Archive
Source Information - Download Text | Download Zip
Grateful Dead
March 28, 1990
Nassau Coliseum
Uniondale, NY

SBD + AUD Matrix 2 Source Mix (55%-SBD/45%-AUD)

Set 1
d1t01 - Cold Rain And Snow ->
d1t02 - New Minglewood Blues
d1t03 - Easy To Love You
d1t04 - High Time
d1t05 - Queen Jane Approximately
d1t06 - Loose Lucy
d1t07 - Cassidy
d1t08 - Deal

Set 2:
d2t01 - Tuning
d2t02 - Foolish Heart ->
d2t03 - Looks Like Rain ->
d2t04 - Cumberland Blues ->
d2t05 - The Weight
d2t06 - Hey Pocky Way ->
d2t07 - Drums ->
d3t01 - Space ->
d3t02 - The Other One
d3t03 - Wharf Rat ->
d3t04 - Good Lovin'

Encore:
d3t05 - Revolution

Jerry Garcia - Guitar
Bob Weir - Guitar
Brent Mydland - Keyboards
Phil Lesh - Bass
Bill Kreutzmann - Drums
Mickey Hart - Drums


Audio Source Information
SBD (shnid = 87643)
Recording Info:
SBD > DAT > Cassette Master (TDK MA-R90) > Nakamichi DR-1 > Apogee MiniMe (24bit/96k) > Samplitude Professional v9.11 > FLAC/16
All Transfers and Mastering By Charlie Miller - October 10, 2007

AUD (shnid = 87701)
Source: (OTS) (Changed mics between sets).
Set One: Nakamichi CM-300's with CP-4 shotguns.
Set Two: Sennheiser MD-441's. Mics > Sony TC-D5M > Maxell MX 90/100 tape, with no Dolby. Mics on 7-foot stands, in front row of OTS.

Transfer: MAC > Sony TC-D5M (Dolby off) > Marantz CDR-500 > EAC > Wav >
Soundforge > CD-Wave > TLH > FLAC. Taped and transferred by Andrew F.

Notes:
- During the intermission I had the opportunity to plug my deck into an
  unused set of 441's that were on a stand next to me.
- Level adjustments and minor vocals distortion during CR&S.
- The show fits on two discs if you break between LLR and Cumberland.
- Soundforge used to make fades, and adjust levels in CR&S.
- TLH used for SBE-OK, FLAC compression, and checksums.

---------------------------------------------------------
- Mixed by [email protected]
- FLAC conversion 22-APR-2015 - Trader Little Helper
- Tagged 22-APR-2015 - Tag&Rename
---------------------------------------------------------
Multitrack Mixdown Settings

SET ONE
Stereo Matrix
SBD 0
AUD +.5

SET TWO
Stereo Matrix
SBD 0
AUD -.5
---------------------------------------------------------
Brokedown House Production

    length     expanded size    cdr  WAVE problems  fmt   ratio  filename
     6:30.16       68833676 B   ---   --   -----    wav  1.0000  gd1990-03-28d1t01.wav
     8:09.45       86365484 B   ---   --   -----    wav  1.0000  gd1990-03-28d1t02.wav
     6:40.18       70602380 B   ---   --   -----    wav  1.0000  gd1990-03-28d1t03.wav
     7:17.66       77242076 B   ---   --   -----    wav  1.0000  gd1990-03-28d1t04.wav
     7:06.30       75217004 B   ---   --   -----    wav  1.0000  gd1990-03-28d1t05.wav
     7:48.62       82701068 B   ---   --   -----    wav  1.0000  gd1990-03-28d1t06.wav
     6:05.38       64475420 B   ---   --   -----    wav  1.0000  gd1990-03-28d1t07.wav
     8:12.53       86913500 B   ---   --   -----    wav  1.0000  gd1990-03-28d1t08.wav
     0:29.15        5150924 B   ---   --   -----    wav  1.0000  gd1990-03-28d2t01.wav
    10:13.41      108229676 B   ---   --   -----    wav  1.0000  gd1990-03-28d2t02.wav
     8:10.65       86588924 B   ---   --   -----    wav  1.0000  gd1990-03-28d2t03.wav
     5:50.34       61820012 B   ---   --   -----    wav  1.0000  gd1990-03-28d2t04.wav
     5:55.48       62734940 B   ---   --   -----    wav  1.0000  gd1990-03-28d2t05.wav
     7:00.20       74135084 B   ---   --   -----    wav  1.0000  gd1990-03-28d2t06.wav
    11:06.60      117623564 B   ---   --   -----    wav  1.0000  gd1990-03-28d2t07.wav
     9:17.64       98405372 B   ---   --   -----    wav  1.0000  gd1990-03-28d3t01.wav
     6:45.65       71594924 B   ---   --   -----    wav  1.0000  gd1990-03-28d3t02.wav
    10:42.12      113277068 B   ---   --   -----    wav  1.0000  gd1990-03-28d3t03.wav
    10:22.20      109767884 B   ---   --   -----    wav  1.0000  gd1990-03-28d3t04.wav
     4:55.74       52212092 B   ---   --   -----    wav  1.0000  gd1990-03-28d3t05.wav
   148:42.21     1573891072 B                            1.0000  (20 files)


Show Checksums
flac-md5
250f0c941de58767c700e31ed4cbf379 *gd1990-03-28d1t01.flac
4722d9f4b127add073eb504f343519f2 *gd1990-03-28d1t02.flac
1bc9dce7ce5b1c43c1f2ffe93bb000cc *gd1990-03-28d1t03.flac
9d4b4c938744bbe4718896d709e8baa7 *gd1990-03-28d1t04.flac
6d455536609bbe32971e4c54b098b626 *gd1990-03-28d1t05.flac
b1da62c0275c0f2b039edae390cd5fec *gd1990-03-28d1t06.flac
d2fd1c683f1bba2345412d7a44bb6962 *gd1990-03-28d1t07.flac
738e5f7e8919eaad7aa93b8b781c1aba *gd1990-03-28d1t08.flac
92b9d1582b05fd368f9f30932738f16f *gd1990-03-28d2t01.flac
920c322e0c38b8cdf6a26ff5b6021050 *gd1990-03-28d2t02.flac
121dfcfa2ac4103babd4f280f920c5e6 *gd1990-03-28d2t03.flac
0a1ba039f4e22c1d3088cb29c4cd530a *gd1990-03-28d2t04.flac
ed06fd1ba0c05214de5839967126d245 *gd1990-03-28d2t05.flac
1167682d0c374714e95bd204f8867583 *gd1990-03-28d2t06.flac
a25fbc8513b2c835cf0b649c0d2af31e *gd1990-03-28d2t07.flac
cccf5e2f12dbf75e5e132304649aabf7 *gd1990-03-28d3t01.flac
1a9b5f1f9abf87f0dac0c969e69a8593 *gd1990-03-28d3t02.flac
eb1d9611586c7dc74081b7501b08ba21 *gd1990-03-28d3t03.flac
28a7cf8eead08806fee587b384f10ef6 *gd1990-03-28d3t04.flac
cbcb96704eeecec7e55da0c89cabe1b3 *gd1990-03-28d3t05.flac
ffp
gd1990-03-28d1t01.flac:5e34c2a00774a1ddba11f1c20bdee72e
gd1990-03-28d1t02.flac:4e695414069d78f800c2638fb4827dd5
gd1990-03-28d1t03.flac:4016e5fde646d883649d32ec29ea1252
gd1990-03-28d1t04.flac:ab92b19397375fb243836aa21857a5f9
gd1990-03-28d1t05.flac:4fb47178ac98971e81781502fd50b07c
gd1990-03-28d1t06.flac:3aa4b9737b2171790c31700885bac4ec
gd1990-03-28d1t07.flac:7ba76aad67badca553b625577922419f
gd1990-03-28d1t08.flac:5b127d90461c9a4e3badebfac91d6039
gd1990-03-28d2t01.flac:430cd1c8cfc0c567223a0cdfdecdedfe
gd1990-03-28d2t02.flac:dc013e49499845ca08c1ae8c2413997a
gd1990-03-28d2t03.flac:321cac95cbe675518cf7227c8f8313a0
gd1990-03-28d2t04.flac:674bbac422d236d13fb13f5e061dcc83
gd1990-03-28d2t05.flac:551bce2ae865b9ab28a366c2ea3949b5
gd1990-03-28d2t06.flac:88182a52b0c62489ab3269d424e5c155
gd1990-03-28d2t07.flac:fd04efa12f6dc3daa38c1b5a872859f2
gd1990-03-28d3t01.flac:fa213237557cfbec8c605126f5e04ba3
gd1990-03-28d3t02.flac:c108ddae23547d1277b32aa0a17e0080
gd1990-03-28d3t03.flac:6862a71370c92e4f21a55f9632a2bcb4
gd1990-03-28d3t04.flac:ba31f83d933a1d50bc77cb2c3e44c22f
gd1990-03-28d3t05.flac:034f685057f73e3ee767e870219445d5

Comments
Add Comment
Other Sources (comments)
sbd/32 track mix> mc> dat>... (4) SBD 24 Track Mix > Master... (5) SBD> 24 Track Mixdown> DAT>... (1) 24 track SBD MR>Healy 2... (2) Updated Includes... (3) Seamless fix of (2) flac16; Recording... (0) flac16; AUD (Changed... (0) Nakamichi 300 Shotguns... (0) flac16; Sennheiser... (0) DTS-Audio-CD 5.1... (0) flac16; SBD + AUD... (0) flac24; Recorded By... (0) flac16; Recorded By... (0) flac16; AT835B's- AT... (0) flac24; Master... (0) flac16; Master... (0) flac16; Recording... (0) DTS-Audio-CD 5.1... (0) flac16; Recording... (0) flac16/48kHz; Ted... (0)
Date User Comment