Browse Collections Artists Sources   Search Dates

Add Show    List Management    Help


Dirty Dozen Brass Band 01/24/15
The Playa at Hard Rock Hotel, Punta Cana, Dominican Republic
Comments Add Comment    Source Collectors    Add to Collection    Add to Want List    History
Source # 132977 Other Sources
Entered by Brian C
Checksums md5
Disc Counts 0 / 0
Media Size
Date Circulated
Date Added

05/12/2015
Source Summary Source: Schoeps CCM4V'S(din)>Lunatec V2>Benchmark AD2K>Sound Devices 722 (24/48) Lineage: Sound Devices 722>Sound Forge 10.0>CD Wave>flac(16) Taped by: Z-Man Transferred by: Z-Man 
  Archive
Source Information - Download Text | Download Zip
Dirty Dozen Brass Band
Panic En La Playa IV - After Show
Hard Rock Hotel And Casino
Punta Cana, Dominican Republic
01/24/2015

Source: Schoeps CCM4V'S(din)>Lunatec V2>Benchmark AD2K>Sound Devices 722 (24/48)
FOB/DFC/KFC/ZFC/AARP Approximately 33' From Stage, 6 1/2' High
DSP: Sound Devices 722>Sound Forge 10.0>CD Wave>flac(16)
ID3 Tagged In Foobar 2000
Recorded By: Z-Man

Disc I
01 instrumental * >
02 Forty People In The House
03 Tomorrow >
04 The Festival >
05 Drum Solo >
06 The Festival >
07 Fire On The Bayou >
08 Red Hot Mama

Disc II
01 Superman >
02 instrumental >
03 Say Uh-Oh With band introductions
04 2nd Line >
05 Put Em' Up >
06 Big Fat Woman >
07 Superstitious
08 Dirty Dozen After Party/Dirty Old Man #

* This was the after show for Widespread Panic. WSP ended at 11:56.
We packed up and high-tailed it (hobbled) over to DDBB. I hit record at 12:03.
We missed the beginning of this song.

# The mains seemed to lose power for about a minute and 45 seconds. As a result, I boosted the levels a bit.

There is a slight fade between discs.

   length     expanded size    cdr  WAVE problems  fmt   ratio  filename
     2:28.60       26248364 B   ---   --   ---xx   flac  0.5202  ddbb2015-01-24d01t01.flac
    13:03.07      138137708 B   ---   --   ---xx   flac  0.4852  ddbb2015-01-24d01t02.flac
     9:29.62      100517468 B   ---   --   ---xx   flac  0.5052  ddbb2015-01-24d01t03.flac
     3:29.28       36933500 B   ---   --   ---xx   flac  0.4644  ddbb2015-01-24d01t04.flac
     3:29.43       36968780 B   ---   --   ---xx   flac  0.4587  ddbb2015-01-24d01t05.flac
     0:50.37        8907068 B   ---   --   ---xx   flac  0.5200  ddbb2015-01-24d01t06.flac
     7:20.16       77653676 B   ---   --   ---xx   flac  0.5315  ddbb2015-01-24d01t07.flac
     6:45.32       71517308 B   ---   --   ---xx   flac  0.5494  ddbb2015-01-24d01t08.flac
     9:59.24      105720092 B   ---   --   ---xx   flac  0.4981  ddbb2015-01-24d02t01.flac
     3:16.62       34720268 B   ---   --   ---xx   flac  0.5472  ddbb2015-01-24d02t02.flac
     9:26.13       99873020 B   ---   --   ---xx   flac  0.4738  ddbb2015-01-24d02t03.flac
     6:25.45       68019884 B   ---   --   ---xx   flac  0.4775  ddbb2015-01-24d02t04.flac
     7:30.45       79485884 B   ---   --   ---xx   flac  0.4570  ddbb2015-01-24d02t05.flac
     2:58.11       31425116 B   ---   --   ---xx   flac  0.5230  ddbb2015-01-24d02t06.flac
    10:00.30      105910604 B   ---   --   ---xx   flac  0.4960  ddbb2015-01-24d02t07.flac
     7:19.27       77503148 B   ---   --   ---xx   flac  0.4880  ddbb2015-01-24d02t08.flac
   103:53.17     1099541888 B                            0.4960  (16 files)
Show Checksums
md5
d042c598a6ce2c8462f3159401659d6a *ddbb2015-01-24d01t01.flac
0a2c7922b3d948d0f9e5cb85d03560d1 *ddbb2015-01-24d01t02.flac
ff7d3ed3c96b8cb1ee892b34953f1b15 *ddbb2015-01-24d01t03.flac
73e7eff7a50cdb03e75e2e4cf222fc4d *ddbb2015-01-24d01t04.flac
fbae5a4d6db342d110cfec9c0b51c9c7 *ddbb2015-01-24d01t05.flac
2860afaad37f305f62ec7ce50a55b75f *ddbb2015-01-24d01t06.flac
9d707b6d6b7356cf2027e238280d7a40 *ddbb2015-01-24d01t07.flac
b36c516cdc952e001f91771e25e1f7ad *ddbb2015-01-24d01t08.flac
176c7e12700a5f9d5c4a5d551151106d *ddbb2015-01-24d02t01.flac
07266a11195638ec51878325aa873569 *ddbb2015-01-24d02t02.flac
1b1eeeb6bb548ee57d6838b926943472 *ddbb2015-01-24d02t03.flac
512acf326cdd89b7e7e5552427276077 *ddbb2015-01-24d02t04.flac
8fb5aa49264a23445b50ad0dae5b1dec *ddbb2015-01-24d02t05.flac
c8923f8f3320047ebb8e758c84b34bff *ddbb2015-01-24d02t06.flac
3ec936a172a188d8123d337c4c92bdf6 *ddbb2015-01-24d02t07.flac
4f50b728f6e37a88dc626f08f737985e *ddbb2015-01-24d02t08.flac

Comments
Add Comment
Other Sources (comments)
2015-01-24 ddbb.enplay... (0)
Date User Comment