Browse Collections Artists Sources   Search Dates

Add Show    List Management    Help


Dirty Dozen Brass Band 01/26/15
The Playa at Hard Rock Hotel, Punta Cana, Dominican Republic
Comments Add Comment    Source Collectors    Add to Collection    Add to Want List    History
Source # 132978 Other Sources
Entered by Brian C
Checksums ffp
Disc Counts 0 / 0
Media Size
Date Circulated
Date Added

05/12/2015
Source Summary Source: Schoeps CCM4V'S(din)>Lunatec V2>Benchmark AD2K> Sound Devices 722 (24/48) Lineage: Sound Devices 722>Sound Forge 10.0>CD Wave>flac(16) Taped by: Z-Man Transferred by: Z-Man 
  Archive
Source Information - Download Text | Download Zip
Dirty Dozen Brass Band
Panic En La Playa IV - After Show
Hard Rock Hotel And Casino
Punta Cana, Dominican Republic
1/26/2015

Source: Schoeps CCM4V'S(din)>Lunatec V2>Benchmark AD2K>
Sound Devices 722 (24/48)
FOB/DFC/KFC/ZFC/AARP Approximately 33' From Stage, 6 1/2' High
DSP: Sound Devices 722>Sound Forge 10.0>CD Wave>flac(16)
ID3 Tagged In Foobar 2000
Recorded By: Z-Man
Seeded By: Z-Man

Disc I

01 Jam >
02 Tomorrow Gonna Be A Brand New Day >
03 Ain't Nothin' But A Party >
04 Papa Was A Rolling Stone
05 *Look-Ka Py Py
06 *?
07 ?

Disc II

01 DDBB Engages Crowd
02 Little Liza Jane
03 ? >
04 Drum Solo >
05 Use Me >
06 Feats Don't Fail Me Now >
07 Uh-Oh >
08 Everybody Cut Loose
Encore:
09 Dirty Dozen After Party

* This Was The After Show For Widespread Panic. WSP Ended at 12:16.
We Packed Up And High-Tailed It (Hobbled) Over To DDBB. Dany And I Hit Record at 12:17
As We Hiked Over. As We Got Closer, You Can Hear The Volume Increase.

ddbb2015-01-26d01t01.flac:62c8809de36d3d92c13f12556128a69b
ddbb2015-01-26d01t02.flac:b9496e0e0cf0a8faf480e1022ba46125
ddbb2015-01-26d01t03.flac:346ab86965a421a529de2751020e6da8
ddbb2015-01-26d01t04.flac:2b191dc9724407570b90a133acd99cd8
ddbb2015-01-26d01t05.flac:a03c4c34c5f7fdd98e9ad005ff461f83
ddbb2015-01-26d01t06.flac:8cda8243135e2706121509570030e1ba
ddbb2015-01-26d01t07.flac:0a1f8a1d65f17e5b14fc5931bc604369
ddbb2015-01-26d02t01.flac:edf0cf9c8098ad6da2e55ba88ed84088
ddbb2015-01-26d02t02.flac:2990ab48082806e142fe10a659754fd8
ddbb2015-01-26d02t03.flac:1491498fb4eb84c695d681d67ac676c4
ddbb2015-01-26d02t04.flac:b8f24889ea8c6552399bf3ae174870e4
ddbb2015-01-26d02t05.flac:80ef0ed5ec2e847c1b340d077cd5208e
ddbb2015-01-26d02t06.flac:a914242d2b515a172b90f002b5224513
ddbb2015-01-26d02t07.flac:747b3e0263b388ebe2218949184f19cd
ddbb2015-01-26d02t08.flac:c00a7c84e0d21e94d058030cd876fa9f
ddbb2015-01-26d02t09.flac:be26ba4175771b90245d5c22cf1bb40b

  length     expanded size    cdr  WAVE problems  fmt   ratio  filename
    10:37.40      112460924 B   ---   --   ---xx   flac  0.4818  ddbb2015-01-26d01t01.flac
     9:18.64       98581772 B   ---   --   ---xx   flac  0.5210  ddbb2015-01-26d01t02.flac
     6:07.13       64769420 B   ---   --   ---xx   flac  0.4747  ddbb2015-01-26d01t03.flac
     6:55.59       73344812 B   ---   --   ---xx   flac  0.4611  ddbb2015-01-26d01t04.flac
     9:45.38      103283420 B   ---   --   ---xx   flac  0.4799  ddbb2015-01-26d01t05.flac
     7:18.57       77397308 B   ---   --   ---xx   flac  0.4438  ddbb2015-01-26d01t06.flac
     6:27.63       68415020 B   ---   --   ---xx   flac  0.4942  ddbb2015-01-26d01t07.flac
     0:36.20        6397484 B   ---   --   ---xx   flac  0.3268  ddbb2015-01-26d02t01.flac
    10:42.16      113286476 B   ---   --   ---xx   flac  0.5096  ddbb2015-01-26d02t02.flac
     6:52.42       72775628 B   ---   --   ---xx   flac  0.4909  ddbb2015-01-26d02t03.flac
     1:42.13       18023420 B   ---   --   ---xx   flac  0.5492  ddbb2015-01-26d02t04.flac
     8:49.32       93390908 B   ---   --   ---xx   flac  0.5076  ddbb2015-01-26d02t05.flac
     5:07.62       54300668 B   ---   --   ---xx   flac  0.5091  ddbb2015-01-26d02t06.flac
     5:48.51       61507196 B   ---   --   ---xx   flac  0.4602  ddbb2015-01-26d02t07.flac
     1:58.49       20930492 B   ---   --   ---xx   flac  0.5076  ddbb2015-01-26d02t08.flac
    10:06.06      106912556 B   ---   --   ---xx   flac  0.4970  ddbb2015-01-26d02t09.flac
   108:15.25     1145777504 B                            0.4891  (16 files)
Show Checksums
ffp
ddbb2015-01-26d01t01.flac:62c8809de36d3d92c13f12556128a69b
ddbb2015-01-26d01t02.flac:b9496e0e0cf0a8faf480e1022ba46125
ddbb2015-01-26d01t03.flac:346ab86965a421a529de2751020e6da8
ddbb2015-01-26d01t04.flac:2b191dc9724407570b90a133acd99cd8
ddbb2015-01-26d01t05.flac:a03c4c34c5f7fdd98e9ad005ff461f83
ddbb2015-01-26d01t06.flac:8cda8243135e2706121509570030e1ba
ddbb2015-01-26d01t07.flac:0a1f8a1d65f17e5b14fc5931bc604369
ddbb2015-01-26d02t01.flac:edf0cf9c8098ad6da2e55ba88ed84088
ddbb2015-01-26d02t02.flac:2990ab48082806e142fe10a659754fd8
ddbb2015-01-26d02t03.flac:1491498fb4eb84c695d681d67ac676c4
ddbb2015-01-26d02t04.flac:b8f24889ea8c6552399bf3ae174870e4
ddbb2015-01-26d02t05.flac:80ef0ed5ec2e847c1b340d077cd5208e
ddbb2015-01-26d02t06.flac:a914242d2b515a172b90f002b5224513
ddbb2015-01-26d02t07.flac:747b3e0263b388ebe2218949184f19cd
ddbb2015-01-26d02t08.flac:c00a7c84e0d21e94d058030cd876fa9f
ddbb2015-01-26d02t09.flac:be26ba4175771b90245d5c22cf1bb40b

Comments
Add Comment
Date User Comment