Browse Collections Artists Sources   Search Dates

Add Show    List Management    Help


Grateful Dead 12/27/83
San Francisco Civic Auditorium, San Francisco, CA
Comments Add Comment    Source Collectors    Add to Collection    Add to Want List    History
Source # 133049 Other Sources
Entered by Matt Vernon
Checksums ffp , flac-md5
Disc Counts 0 / 0
Media Size Compressed: 1.05 GB (1131413504 bytes)
Uncompressed: 1.62 GB (1741903796 bytes)
Date Circulated
Date Added
05/25/2015
05/25/2015
Source Summary flac16; Matrix 2 Source Mix - SBD (shnid=96167) SBD -> Cassette Master (Nakamichi 550/Maxell XLII-S90); Transfer Info; Cassette Master (Nakamichi DR-1) -> Sound Devices 744T (24bit/96k) -> Adobe Audition v1.5 -> Samplitude Professional v10.1 -> r8brain PRO v1.5 -> FLAC/16 and AUD (shn id 89483) Sennheiser MD-441's > patched thru 2 tapedecks > Marantz PMD-340 > Sony UCX-S 90's, Dolby on. Mics on 8-foot stand, just behind the Sbd. Transfer: MAC > Nakamichi DR-8 (Dolby B on) > Audiophile 2496 analog-in > Soundforge > CD-Wave > TLH > FLAC. Taped and tranferred by Andrew F. - matrix mixing by Kevin Tobin 
  Archive
Source Information - Download Text | Download Zip
Grateful Dead
Civic Auditorium
San Francisco CA
12-27-1983

SBD + AUD Matrix 2 Source Mix(45%-SBD/55%-AUD)

Set 1:
d1t01 - Cold Rain & Snow
d1t02 - C.C. Rider
d1t03 - They Love Each Other
d1t04 - Beat it on Down the Line
d1t05 - Althea ->
d1t06 - Cassidy
d1t07 - West L.A. Fadeaway
d1t08 - Hell in a Bucket ->
d1t09 - Might as Well

Set 2:
d2t01 - Scarlet Begonias ->
d2t02 - Fire on the Mountain ->
d2t03 - Samson & Delilah
d2t04 - He's Gone ->
d2t05 - Drums ->
d3t01 - Space ->
d3t02 - Throwing Stones ->
d3t03 - Black Peter ->
d3t04 - Sugar Magnolia

-- Encore --
d3t05 - U.S. Blues

Audio Source Information
SBD (shnid = 96167)
SBD -> Cassette Master (Nakamichi 550/Maxell XLII-S90)

Transfer Info:
Cassette Master (Nakamichi DR-1) -> Sound Devices 744T (24bit/96k) ->
Adobe Audition v1.5 -> Samplitude Professional v10.1 -> r8brain PRO v1.5 -> FLAC/16
(3 Discs Audio / 2 Discs FLAC)

All Transfers and Mastering By Charlie Miller
[email protected]
December 2, 2008

Patch Info:
(FOB) Sennheiser 441 -> PCM -> Dat (shnid=17961) supplies:
Cassidy (4:34 - 5:00)
He's Gone (7:05 - 7:15)
Sugar Magnolia (0:24 - 0:30)

Notes:
-- Set 2 is seamless
-- Thanks to Paul Scotton and Joani Walker for the Cassettes.

AUD (shnid = 89483)
AUD: Sennheiser MD-441's > patched thru 2 tapedecks > Marantz PMD-340 >
Sony UCX-S 90's, Dolby on. Mics on 8-foot stand, just behind the Sbd.

Transfer: MAC > Nakamichi DR-8 (Dolby B on) > Audiophile 2496 analog-in >
Soundforge > CD-Wave > TLH > FLAC. Taped and tranferred by Andrew F.
---------------------------------------------------------
- Mixed by [email protected]
- FLAC conversion 25-MAY-2015 - Trader Little Helper
- Tagged 25-MAY-2015 - Tag&Rename
---------------------------------------------------------
Multitrack Mixdown Settings

SET ONE

Stereo Matrix
SBD 0
AUD -1.5

SET TWO

Stereo Matrix
SBD 0
AUD -1.5
---------------------------------------------------------
Brokedown House Production

    length     expanded size    cdr  WAVE problems  fmt   ratio  filename
     7:01.27       74327948 B   ---   --   -----    wav  1.0000  gd1983-12-27d1t01.wav
     6:48.09       71992412 B   ---   --   -----    wav  1.0000  gd1983-12-27d1t02.wav
     7:42.60       81637964 B   ---   --   -----    wav  1.0000  gd1983-12-27d1t03.wav
     3:46.17       39906428 B   ---   --   -----    wav  1.0000  gd1983-12-27d1t04.wav
     9:15.42       98000828 B   ---   --   -----    wav  1.0000  gd1983-12-27d1t05.wav
     5:55.51       62741996 B   ---   --   -----    wav  1.0000  gd1983-12-27d1t06.wav
     9:26.00       99842444 B   ---   --   -----    wav  1.0000  gd1983-12-27d1t07.wav
     5:46.16       61072076 B   ---   --   -----    wav  1.0000  gd1983-12-27d1t08.wav
     4:30.27       47691548 B   ---   --   -----    wav  1.0000  gd1983-12-27d1t09.wav
    15:52.58      168069260 B   ---   --   -----    wav  1.0000  gd1983-12-27d2t01.wav
    13:44.10      145377164 B   ---   --   -----    wav  1.0000  gd1983-12-27d2t02.wav
     7:59.20       84542684 B   ---   --   -----    wav  1.0000  gd1983-12-27d2t03.wav
    12:12.06      129138956 B   ---   --   -----    wav  1.0000  gd1983-12-27d2t04.wav
    10:00.62      105985868 B   ---   --   -----    wav  1.0000  gd1983-12-27d2t05.wav
    11:53.58      125909660 B   ---   --   -----    wav  1.0000  gd1983-12-27d3t01.wav
     8:58.26       94964396 B   ---   --   -----    wav  1.0000  gd1983-12-27d3t02.wav
     7:01.71       74431436 B   ---   --   -----    wav  1.0000  gd1983-12-27d3t03.wav
    11:14.23      118947740 B   ---   --   -----    wav  1.0000  gd1983-12-27d3t04.wav
     5:24.72       57322988 B   ---   --   -----    wav  1.0000  gd1983-12-27d3t05.wav
   164:34.55     1741903796 B                            1.0000  (19 files)




Show Checksums
ffp
gd1983-12-27d1t01.flac:d9445b3ead6075cfba1000a33907e63f
gd1983-12-27d1t02.flac:1bf5240d0c617a7c56e5eaf5c9926812
gd1983-12-27d1t03.flac:d2c43a80d1697a4126c1b4a6774029f5
gd1983-12-27d1t04.flac:646fd813814d9847c2ff200645a658fe
gd1983-12-27d1t05.flac:3807575598fbf10f1d51c1ba8d9f1f48
gd1983-12-27d1t06.flac:0e38d12ae0e36aaa17076a7e698eae86
gd1983-12-27d1t07.flac:fe4d990af2212279e259589349a31212
gd1983-12-27d1t08.flac:67a1af9e29fc82c9ac30f2c06b1d6157
gd1983-12-27d1t09.flac:55712c820bf7cce486fbc9da3f32edda
gd1983-12-27d2t01.flac:e4aac6cbc066583caa00bf27106b247b
gd1983-12-27d2t02.flac:cd30874daa3e9541bc174a59f152d9dc
gd1983-12-27d2t03.flac:8bea4bc297c5c50b87cb97b3384e24a8
gd1983-12-27d2t04.flac:6939b148f69fafeadf5150e1a1e4a995
gd1983-12-27d2t05.flac:38695f4525ae3e7166fff9b8cca3ea16
gd1983-12-27d3t01.flac:b2bae5d17d4d6e632040e6bb97e4f3f8
gd1983-12-27d3t02.flac:1642331e637e4cf4e9cf6275d86acb00
gd1983-12-27d3t03.flac:0c92b7b9b2ca0a9976b7de365345db71
gd1983-12-27d3t04.flac:a13eba4d41965ba8805941643b834d68
gd1983-12-27d3t05.flac:064ab84b80cc148910cb7a0f005bdff1
flac-md5
3f3573a0aef81c6f9d51c2e0cabd44de *gd1983-12-27d1t01.flac
c01089d043732cbf9feb1f7cafc704e2 *gd1983-12-27d1t02.flac
9fc65a59ffae9c3f66ab530c7c022e6a *gd1983-12-27d1t03.flac
b116fb02ba541f324da48b518fa73f12 *gd1983-12-27d1t04.flac
6f27758d9e22d50efa6ea5a62e44f542 *gd1983-12-27d1t05.flac
4d66adbaf22c9688f0640e21b19f789e *gd1983-12-27d1t06.flac
10f4f3f4ddba30b21eae91c48ddc88b3 *gd1983-12-27d1t07.flac
e81630478d69b8579a53ec500dc39f88 *gd1983-12-27d1t08.flac
6a26bbb87989382fd001b5fd3052dee4 *gd1983-12-27d1t09.flac
0e5771ff74df225847599023004ac05e *gd1983-12-27d2t01.flac
a926f1d151c93750c5250c1670860906 *gd1983-12-27d2t02.flac
c328c81ace0db810660a428ed59c818f *gd1983-12-27d2t03.flac
d0a782933c79a0b8a48962a1585a93ff *gd1983-12-27d2t04.flac
e0e307a490868f08bfc9d7185fcfc788 *gd1983-12-27d2t05.flac
b7ddae1aafc69614cade8782075e4752 *gd1983-12-27d3t01.flac
3bb0334b179b486ca50e2db4949b3743 *gd1983-12-27d3t02.flac
f95bfd3458b5bfc358c180e0b81b6f7c *gd1983-12-27d3t03.flac
f08bbdc5efc9eba01721a85a5aa26005 *gd1983-12-27d3t04.flac
815c2af38f2d77adc5480f9ee3aa160c *gd1983-12-27d3t05.flac

Comments
Add Comment
Other Sources (comments)
Aud>?>CD>EAC>SHN via Steve... (1) (FOB) Senn 441>PCM>Dat... (0) SBD > MC > C > DAT > CD >... (3) SBD > MC > C > DAT > CD >... (0) flac16; Recording... (2) flac16; Source:... (0) flac16; AUD:... (0) flac16; Recording... (0) flac16: Recorded by... (0) DTS-Audio-CD 5.1... (0) flac16; Master... (0) flac24; Master... (0) flac16; source: aud... (0) flac24; source: aud... (0)
Date User Comment