Browse Collections Artists Sources   Search Dates

Add Show    List Management    Help


Patterson Hood 02/14/13
The Grey Eagle, Asheville, NC
Comments Add Comment    Source Collectors    Add to Collection    Add to Want List    History
Source # 133366 Other Sources
Entered by ziko
Checksums ffp
Disc Counts 0 / 0
Media Size
Date Circulated
Date Added
02/17/2013
06/11/2015
Source Summary source: post show matrix aud source: Neumann ak40 > lc3 > km100 (nos) > xlr > Lunatec V3 > Edirol R-44 @ 24/48 location: fob,dfc clamped to rafters @ about 8' high sbd source: SBD > 1/4" > Edirol R-44 @ 24/48 transfer: SDHC card > PC > wavelab 6.1 > cd wave > traders little helper (flac level 8) 
  Archive
Source Information - Download Text | Download Zip
Patterson Hood
02/14/2013
The Grey Eagle
Asheville, NC

source:      post show matrix
aud source:  Neumann ak40 > lc3 > km100 (nos) > xlr > Lunatec V3 > Edirol R-44 @ 24/48
location:    fob,dfc clamped to rafters @ about 8' high
sbd source:  SBD > 1/4" > Edirol R-44 @ 24/48
transfer:    SDHC card > PC > wavelab 6.1 > cd wave > traders little helper (flac level 8)

Matrix, Fades, Crystal Resampler (high), & dither w/ iZotope Ozone 5 done in wavelab 6.1

*16bit/44.1khz fileset*

recorded and transferred by Gordon Wilson

A Team Dirty South Recording

01. Intro
02. Feb 14
03. Disappear
04. 12:01
05. Leaving Time
06. Little Bonnie
07. Pride of the Yankees
08. Daddy Needs A Drink
09. Better Than The Truth
10. Uncle Disney
11. Betty Ford
12. After The Damage
13. Better Off Without
14. Pollyanna
15. Heavy & Hanging *
16. Grandaddy
17. Heat Lightning Rumbles in the Distance
18. Come Back Little Star
19. Fifteen Days

Encore:
20. Banter
21. If I Were Jimmy Page
22. 18 Wheels of Love
23. Back Of A Bible *

W/ Brad Morgan & Jay Gonzalez

* there was minor clipping on the sbd during the very loud sections of heavy and bible.  I ran the sbd file through iZotope RX 2 declipper.  As best as I can tell it fixed any audible clipping which wasn't bad to begin with.



shntool 3.0.4

    length     expanded size    cdr  WAVE problems  fmt   ratio  filename
     1:04.62       11435468 B   ---   --   ---xx   flac  0.3791  patterson2013-02-14t01.flac
     5:06.17       54018428 B   ---   --   ---xx   flac  0.4903  patterson2013-02-14t02.flac
     6:29.69       68781932 B   ---   --   ---xx   flac  0.4468  patterson2013-02-14t03.flac
     5:08.48       54444140 B   ---   --   ---xx   flac  0.4263  patterson2013-02-14t04.flac
     3:17.33       34828460 B   ---   --   ---xx   flac  0.4999  patterson2013-02-14t05.flac
     4:03.54       42992252 B   ---   --   ---xx   flac  0.5214  patterson2013-02-14t06.flac
     4:22.54       46343852 B   ---   --   ---xx   flac  0.4492  patterson2013-02-14t07.flac
     7:39.50       81085244 B   ---   --   ---xx   flac  0.4267  patterson2013-02-14t08.flac
     4:01.55       42641804 B   ---   --   ---xx   flac  0.4883  patterson2013-02-14t09.flac
     3:07.63       33135020 B   ---   --   ---xx   flac  0.4435  patterson2013-02-14t10.flac
     2:59.72       31744988 B   ---   --   ---xx   flac  0.5267  patterson2013-02-14t11.flac
     8:58.73       95074940 B   ---   --   ---xx   flac  0.4283  patterson2013-02-14t12.flac
     2:18.70       24507884 B   ---   --   ---xx   flac  0.5402  patterson2013-02-14t13.flac
     4:48.46       50911436 B   ---   --   ---xx   flac  0.5494  patterson2013-02-14t14.flac
     7:13.57       76515308 B   ---   --   ---xx   flac  0.4760  patterson2013-02-14t15.flac
     2:51.00       30164444 B   ---   --   ---xx   flac  0.4445  patterson2013-02-14t16.flac
     5:13.00       55213244 B   ---   --   ---xx   flac  0.4343  patterson2013-02-14t17.flac
     4:35.50       48627644 B   ---   --   ---xx   flac  0.4685  patterson2013-02-14t18.flac
     6:29.73       68791340 B   ---   --   ---xx   flac  0.4946  patterson2013-02-14t19.flac
     2:06.33       22304060 B   ---   --   ---xx   flac  0.4114  patterson2013-02-14t20.flac
     4:11.51       44396396 B   ---   --   ---xx   flac  0.4594  patterson2013-02-14t21.flac
     9:16.65       98231324 B   ---   --   ---xx   flac  0.4959  patterson2013-02-14t22.flac
     7:28.04       79036652 B   ---   --   ---xx   flac  0.5022  patterson2013-02-14t23.flac
   112:55.49     1195226260 B                            0.4708  (23 files)
Show Checksums
ffp
patterson2013-02-14t01.flac:8d7f2efd6cbfb7184dbcbbc50c69f557
patterson2013-02-14t02.flac:686f08f7269ee6f22297c2d4fd38289f
patterson2013-02-14t03.flac:dc93c57ef9a748871c49ef8a0a7be61a
patterson2013-02-14t04.flac:59dd0d2708693d31438c66057bced939
patterson2013-02-14t05.flac:bee236a5098160317a0a6d42d002c0c7
patterson2013-02-14t06.flac:6edc1ab05a6741636cec7a568d5ff7c6
patterson2013-02-14t07.flac:831fa7a749719fa5ce6e977e3a9cc29c
patterson2013-02-14t08.flac:cb583373a42415f9550dcbf7a25b7666
patterson2013-02-14t09.flac:8eafb6102219d35f016e875f404c2511
patterson2013-02-14t10.flac:a04b09194f3e14984aa6c251c28c82fb
patterson2013-02-14t11.flac:399b85c955f34e9800316f02fc40fdb2
patterson2013-02-14t12.flac:d2251d3c84a0bb3816daf5c504603d3d
patterson2013-02-14t13.flac:bcd3ddacc67e945424e10be595863205
patterson2013-02-14t14.flac:7819a0e2ff314dd4309d35c28e35650a
patterson2013-02-14t15.flac:77a223b9de9e8a87260e6e2a4abe0cd6
patterson2013-02-14t16.flac:726939e673e9e17d729bac45ba84ab98
patterson2013-02-14t17.flac:982ec119ab68de7d1aa3452dcd55745b
patterson2013-02-14t18.flac:80155c21410545673cd0f0c752f721dc
patterson2013-02-14t19.flac:6547ffc8500e5893a9c3323605fe60e0
patterson2013-02-14t20.flac:0725deca719a81520ce18d7ba15c518a
patterson2013-02-14t21.flac:6b762025d876b47bb1e01fdf013d5047
patterson2013-02-14t22.flac:b5931c14aac6924ce276190db1bc24e9
patterson2013-02-14t23.flac:8b7830f2704567cbcd41b98c2a294bb8

Comments
Add Comment
Date User Comment