Browse Collections Artists Sources   Search Dates

Add Show    List Management    Help


Grateful Dead 11/20/73
Denver Coliseum, Denver, CO
Comments Add Comment    Source Collectors    Add to Collection    Add to Want List    History
Source # 133392 Other Sources
Entered by Matt Vernon
Checksums ffp , flac-md5
Disc Counts 0 / 0
Media Size Compressed: 1.07 GB (1150372565 bytes)
Uncompressed: 2.06 GB (2212254932 bytes)
Date Circulated
Date Added
06/12/2015
06/12/2015
Source Summary flac16; 2 Source Matrix by Dusborne; Soundboard (shnid:1234) MR > DAT > CD > EAC > SHN and Audience (shnid:22879) Sony 1-point stereo mic > Sony TC-124) > Nak Dragon playback > ART DI/O > HD > Cool Edit 2000 > master CD > Samsung SW-232B extraction (EAC v0.95 prebeta 4) > sector boundary verification (shntool v1.01) > .shn encoding (mkwACT v0.97 beta 1) 
  Archive
Source Information - Download Text | Download Zip
Grateful Dead
November 20, 1973
Denver Coliseum
Denver, CO

2 Source Matrix

Soundboard (shnid:1234)
-------------------------------------------------------------------------------------------------------------
gd73-11-20.sbd.hollister.1234.sbeok.flac16

Source: SBD
Genealogy: S:MR > DAT > CD > EAC > SHN
Thanks to David Hollister for this great copy!
Extraction and SHN encoding by G. S. Hamilton

Notes:
D1t01 (Ramble On Rose): some sound system problems
D3t05 (UJB): appears to be from different source, lineage
             possibly S:MR > cassette > DAT > CDR

Flac encoding notes:
All processing with Trader's Little Helper
Shn - st5 generated
Shn > Flac ( level 8 )
Flac - st5 generated and matched to Shn st5
B. Proctor 10-12-08

Audience (shnid:22879)
-------------------------------------------------------------------------------------------------------------
gd73-11-20.wolfson.warner.22879.sbeok.shnf

MAC (Taped by Cary Wolfson, Sony 1-point stereo mic > Sony TC-124) >
Nak Dragon playback > ART DI/O > HD > Cool Edit 2000 > master CD >
Samsung SW-232B extraction (EAC v0.95 prebeta 4) > sector boundary verification (shntool v1.01) >
.shn encoding (mkwACT v0.97 beta 1)

A > D by David Minches
EAC > SHN by Jack Warner (jackmw1ATsbcglobalDOTnet)
-------------------------------------------------------------------------------------------------------------

---Thank you David Hollister for the SBD.
---Thank you G. S. Hamilton for your work on the SBD.
---Thank you Cary Wolfson for recording the show.
---Thank you David Minches for the AUD transfer.
---Thank you Jack Warner for your work on the AUD.
---Thank you Bruce "The Big Woods" for the artwork.
---Thank you Germain for your advice, encouragement, guidance and seeding.

Matrix by dusborne

05-27-2015
------------------------------------------------------------------------------------------------------------

Set 1

101- gd73-11-20s1t01 - Tuning
102- gd73-11-20s1t02 - Ramble on Rose
103- gd73-11-20s1t03 - Mexicali Blues
104- gd73-11-20s1t04 - Don't Ease Me In
105- gd73-11-20s1t05 - Black Throated Wind
106- gd73-11-20s1t06 - Brown Eyed Women
107- gd73-11-20s1t07 - Beat It On Down The Line
108- gd73-11-20s1t08 - To Lay Me Down
109- gd73-11-20s1t09 - The Race Is On
110- gd73-11-20s1t10 - They Love Each Other
111- gd73-11-20s1t11 - Me & Bobby McGee
112- gd73-11-20s1t12 - Tennessee Jed
113- gd73-11-20s1t13 - Big River
114- gd73-11-20s1t14 - Row Jimmy
115- gd73-11-20s1t15 - Weather Report Suite
116- gd73-11-20s1t16 - Casey Jones


Set 2

201 - gd73-11-20s2t01 - Tuning
202 - gd73-11-20s2t02 - The Promised Land ->
203 - gd73-11-20s2t03 - Bertha ->
204 - gd73-11-20s2t04 - Greatest Story Ever Told
205 - gd73-11-20s2t05 - Mississippi Half-Step- >
206 - gd73-11-20s2t06 - Dire Wolf
207 - gd73-11-20s2t07 - Looks Like Rain
208 - gd73-11-20s2t08 - China Cat Sunflower ->
209 - gd73-11-20s2t09 - I Know You Rider
210 - gd73-11-20s2t10 - Truckin'->
211 - gd73-11-20s2t11 - The Other One ->
212 - gd73-11-20s2t12 - Mind Left Body Jam ->
213 - gd73-11-20s2t13 - Stella Blue
214 - gd73-11-20s2t14 - Sugar Magnolia

Encore
215 - gd73-11-20s2t15 - Uncle John's Band
--------------------------------------------------------------------------------------------------------

Tagging notes:
Show information is embedded within the header of each flac file.
It will display on any player capable of directly playing flac
files. If converted to wav during processing, all tags will be
stripped, however audio data will remain unaffected. If you must
transcode to a lossy format, do so directly Flac > Lossy.
Use st5 to validate audio integrity.
Md5 values will change if tagging is altered.
Dave Usborne 05-27-2015
---------------------------------------------------------------------------------------------------------

length     expanded size    cdr  WAVE problems  fmt   ratio  filename
     2:11.25       23167244 B   ---   --   ---xx   flac  0.3996  gd73-11-20s1t01.flac
     7:24.63       78469820 B   ---   --   ---xx   flac  0.5351  gd73-11-20s1t02.flac
     4:01.30       42583004 B   ---   --   ---xx   flac  0.5381  gd73-11-20s1t03.flac
     3:44.05       39525404 B   ---   --   ---xx   flac  0.5441  gd73-11-20s1t04.flac
     7:36.53       80563100 B   ---   --   ---xx   flac  0.5286  gd73-11-20s1t05.flac
     4:59.58       52880060 B   ---   --   ---xx   flac  0.5189  gd73-11-20s1t06.flac
     3:52.50       41042444 B   ---   --   ---xx   flac  0.5292  gd73-11-20s1t07.flac
     7:21.11       77818316 B   ---   --   ---xx   flac  0.4560  gd73-11-20s1t08.flac
     3:47.22       40094588 B   ---   --   ---xx   flac  0.4923  gd73-11-20s1t09.flac
     5:47.62       61356668 B   ---   --   ---xx   flac  0.5476  gd73-11-20s1t10.flac
     5:22.48       56913740 B   ---   --   ---xx   flac  0.5216  gd73-11-20s1t11.flac
     8:26.70       89423084 B   ---   --   ---xx   flac  0.5124  gd73-11-20s1t12.flac
     5:51.55       62045804 B   ---   --   ---xx   flac  0.4896  gd73-11-20s1t13.flac
     8:57.02       94731548 B   ---   --   ---xx   flac  0.5038  gd73-11-20s1t14.flac
    15:17.05      161770604 B   ---   --   ---xx   flac  0.5251  gd73-11-20s1t15.flac
     6:56.15       73417724 B   ---   --   ---xx   flac  0.5650  gd73-11-20s1t16.flac
     0:19.31        3424556 B   ---   --   ---xx   flac  0.4182  gd73-11-20s2t01.flac
     2:53.47       30627788 B   ---   --   ---xx   flac  0.6164  gd73-11-20s2t02.flac
     5:54.55       62575004 B   ---   --   ---xx   flac  0.6077  gd73-11-20s2t03.flac
     6:27.55       68396204 B   ---   --   ---xx   flac  0.5691  gd73-11-20s2t04.flac
     7:09.68       75835580 B   ---   --   ---xx   flac  0.5313  gd73-11-20s2t05.flac
     4:09.64       44074172 B   ---   --   ---xx   flac  0.5190  gd73-11-20s2t06.flac
     7:04.16       74831276 B   ---   --   ---xx   flac  0.4795  gd73-11-20s2t07.flac
     9:04.59       96100412 B   ---   --   ---xx   flac  0.5610  gd73-11-20s2t08.flac
     5:36.64       59420972 B   ---   --   ---xx   flac  0.5329  gd73-11-20s2t09.flac
    12:02.31      127433756 B   ---   --   ---xx   flac  0.5288  gd73-11-20s2t10.flac
    17:38.24      186687692 B   ---   --   ---xx   flac  0.5113  gd73-11-20s2t11.flac
     2:50.53       30112700 B   ---   --   ---xx   flac  0.5258  gd73-11-20s2t12.flac
     8:26.48       89371340 B   ---   --   ---xx   flac  0.4436  gd73-11-20s2t13.flac
    11:02.55      116906204 B   ---   --   ---xx   flac  0.5295  gd73-11-20s2t14.flac
     6:40.40       70654124 B   ---   --   ---xx   flac  0.4535  gd73-11-20s2t15.flac
   209:01.09     2212254932 B                            0.5200  (31 files)


Show Checksums
ffp
gd73-11-20s1t01.flac:6912fed854089c80f0ef5b8578a0470b
gd73-11-20s1t02.flac:ee11996cea8d7fdff76f7b175389cb55
gd73-11-20s1t03.flac:344ae7aad304312550184c56261e9f1d
gd73-11-20s1t04.flac:91b91403fc80a7829b2560c92ff215bf
gd73-11-20s1t05.flac:07e395d957e175535357ed7edf8c0190
gd73-11-20s1t06.flac:c76ab3ec8562bb84b9020592cfd7d707
gd73-11-20s1t07.flac:0ca4772e467733851fa6615c89676156
gd73-11-20s1t08.flac:cb85f33a4d14db3d31c4001e8ae103cf
gd73-11-20s1t09.flac:106c0891e166b6f3ec74800441fd0a43
gd73-11-20s1t10.flac:b5134f2d8ae71d88d24de6ff72dd7fd1
gd73-11-20s1t11.flac:eced0e224f2391969862178779f27f56
gd73-11-20s1t12.flac:1e4e9322c4c335d2d67b2b483ec52ff3
gd73-11-20s1t13.flac:50d1f42c8997c6532fa195212b4ec5f9
gd73-11-20s1t14.flac:eb81f88914be8f555108ae32f01deaab
gd73-11-20s1t15.flac:dd9510eda788a42c4bbcc267824e0b87
gd73-11-20s1t16.flac:5e495a95011ddc82692e9fcfcb436c10
gd73-11-20s2t01.flac:24a02128e06594846b6fc8560859667e
gd73-11-20s2t02.flac:c5a8a9e12ae0636ec877beb2103aad44
gd73-11-20s2t03.flac:4a89f36c2e0f4416884099cb71a3daf0
gd73-11-20s2t04.flac:3cb9e2ea58e1ec4de7e63bee9fb4ccae
gd73-11-20s2t05.flac:446d1ff217385fab3269950179e26669
gd73-11-20s2t06.flac:544bdc90ab86994722a1e853f9c0910b
gd73-11-20s2t07.flac:2c1e35df873d445983512bd0a4c8ee6c
gd73-11-20s2t08.flac:580e05a843f5195bf3a031f4ca636eaf
gd73-11-20s2t09.flac:455da59d7575e473f090ed074221d762
gd73-11-20s2t10.flac:fb42633d0205308b5b89b5776b658af1
gd73-11-20s2t11.flac:0eed94c31dc30ca14fc22f0f13aa13e4
gd73-11-20s2t12.flac:7b453b67ed0655075b400db771824a67
gd73-11-20s2t13.flac:300c8f4a79f22abef5732ca64d000633
gd73-11-20s2t14.flac:28dba8dd3d1601f6ad9c87e01cbf4096
gd73-11-20s2t15.flac:462244c56a2b2fa719d592e0ea8ef01b
flac-md5
d44ab0449bcfe820175df7a212ebba04 *gd73-11-20s1t01.flac
183e34841453ea8281075750eb004283 *gd73-11-20s1t02.flac
8f92b30e4ac98f7ac1f9353cd04cc05d *gd73-11-20s1t03.flac
840fdde0fb1d8802f81e8a4160c6a96c *gd73-11-20s1t04.flac
6c4327f30106b85ed46c78b41b594342 *gd73-11-20s1t05.flac
cf85f5aa6986fdaf8a32cc5490f49d2f *gd73-11-20s1t06.flac
0c2fa9c0b41730de877013f325f3e501 *gd73-11-20s1t07.flac
b3e018a6c64ccf4f6b30e7c8b516378e *gd73-11-20s1t08.flac
aa6eef7c89eef247c7b0f23f0b70e635 *gd73-11-20s1t09.flac
cf054cdaba2fc0156816e448891e3bc6 *gd73-11-20s1t10.flac
76be9055a0435fd2f6aa0f95946e7f0e *gd73-11-20s1t11.flac
bbe9036f9661eeeecfa9ff1a4ccaa4d9 *gd73-11-20s1t12.flac
4802d076a06fbb3569e4c489954f4daa *gd73-11-20s1t13.flac
958bdde60b5ea3ab53d68dd7d2a6a573 *gd73-11-20s1t14.flac
d40c7c63a59a6a281a9c22a9883149c7 *gd73-11-20s1t15.flac
24f5a736ec1692596fabc3fcdd2276b8 *gd73-11-20s1t16.flac
1a98904ec32fbadfa3aa2b4792dfe8b0 *gd73-11-20s2t01.flac
44bcac0afb15b6b781517ba862510a31 *gd73-11-20s2t02.flac
38c36fb8e1bc39bfcc803c2729a0d9c5 *gd73-11-20s2t03.flac
a3676229e6260b5e0a0dd51498ec017d *gd73-11-20s2t04.flac
7855c812c8dd220a2a75bcbff8ca0196 *gd73-11-20s2t05.flac
f023e01ded449f12a9b8ab491b286bb6 *gd73-11-20s2t06.flac
8cf8b79ca1f26f81688294ccb1a0122b *gd73-11-20s2t07.flac
2b5b9537a62351101a61a53a818717e9 *gd73-11-20s2t08.flac
afb7d145d3c2e440f28cdbf2d308ea3c *gd73-11-20s2t09.flac
b7bfb721ca11b2373df86758da3d9907 *gd73-11-20s2t10.flac
13a58668caa63bb778a3e6e492972a3f *gd73-11-20s2t11.flac
3866267b56a187f91a3b3261e2c6c8da *gd73-11-20s2t12.flac
6afce1a2d04ce8c9d6a6082f741abc9d *gd73-11-20s2t13.flac
e35468fcef853b695e818ff257c89501 *gd73-11-20s2t14.flac
66823867bf30a1d78046d55fcb901f33 *gd73-11-20s2t15.flac

Comments
Add Comment
Other Sources (comments)
S:MR > DAT > CD > EAC >... (6) MAC (Taped by Cary Wolfson,... (0) flac16; main source:... (2) flac16; Partial set... (0)
Date User Comment