Browse Collections Artists Sources   Search Dates

Add Show    List Management    Help


Greensky Bluegrass 12/01/09
Beachland Tavern, Cleveland, OH
Comments Add Comment    Source Collectors    Add to Collection    Add to Want List    History
Source # 133431 Other Sources
Entered by
Checksums ffp
Disc Counts 0 / 0
Media Size
Date Circulated
Date Added
12/02/2009
06/13/2015
Source Summary Source: Schoeps CCM4V'S(din)>Lunatec V2>Benchmark AD2K> Sound Devices 722 (24/48)
Location: FOB/DLFC/KFC/ZFC/AARP 6' From Stage, 6 1/2' High
DSP: Sound Devices 722>Sound Forge 9.0>CD Wave>flac(16)
Recorded By: Z-Man 
Source Information - Download Text | Download Zip
Greensky Bluegrass
Beachland Tavern
Cleveland, Ohio
12/1/2009

Source: Schoeps CCM4V'S(din)>Lunatec V2>Benchmark AD2K>
Sound Devices 722 (24/48)
Location: FOB/DLFC/KFC/ZFC/AARP 6' From Stage, 6 1/2' High
DSP: Sound Devices 722>Sound Forge 9.0>CD Wave>flac(16)
Recorded By: Z-Man
Seeded By: Z-Man

Disc I 1st Set

01 Tuning
02 Pig In A Pen
03 Reverend
04 Big Railroad Blues >
05 Broke Mountain Breakdown >
06 Funk Jam >
07 I'm Still Here >
08 Broke Mountain Breakdown
09 Against The Days >
10 Ground Hog >
11 Jam >
12 Wheel Hoss
13 No Idea
14 Gumboots
Soundcheck:
15 No Idea
16 No Idea
17 When I Paint My Masterpiece

Disc II 2nd Set

01 *Snake Farm >
02 Better Off >
03 Indian Trail >
04 Day In The Life
05 Train Junkie
06 Tuning/Todd Joins the Boys
07 *Peggy-O
08 *Bringin' My Baby Back Home

Dics III 2nd Set Con't

01 Banter
02 Airmail Special
03 Grow Bananas
04 Jam >
05 200 Miles From Montana
06 Stop That Train I'm Leavin' >
07 Dry County >
08 Old Barns
Encore:
09 Banter on New Years Eve Show
10 Sweetwater Sea >
11 Gold Rush

* House Music by Jake on the PA. Anders adds some vocals as the boys jammed along with it. Very smooth transition if I say so.
# With Todd Sheaffer of Railroad Earth on Guitar and Vocals.

Show Notes: The show was originally slated to be held in the Beachland Ballroom. The venue double bookd the Ballroom and moved GSBG into the Tavern. I like to record from DFC, but due to the logistics, if I was to record from there, I would pick up all the folks that hang at the bar and yap all night. That is why I chose to tape DLFC. The Peggy-O was the first time played. That was the 2nd time played for Day In The Life. That was the 3rd time played for No Idea.

Flac Fingerprint

gsbg2009-12-01d01t01.flac:3ca07919a6027955379a20b37382c6ca
gsbg2009-12-01d01t02.flac:877c0828e5e18246d1a7da32419e855d
gsbg2009-12-01d01t03.flac:8ce795d0e5811dc229917ceff22e8f65
gsbg2009-12-01d01t04.flac:703c5e7904a807a42b68adc5492445cd
gsbg2009-12-01d01t05.flac:0b5348aa3bdeeb646b81bc99ff7566b4
gsbg2009-12-01d01t06.flac:12da1a25e83f96a5ab9db78f9250d871
gsbg2009-12-01d01t07.flac:70781286e559fa212ded03559eba96df
gsbg2009-12-01d01t08.flac:a8b66ba2680f6b99c5f6756015254c9b
gsbg2009-12-01d01t09.flac:10bda4cf38d71385e9ca1e1d2dee4826
gsbg2009-12-01d01t10.flac:a17c287790ac26f4cfb310ed16e081bd
gsbg2009-12-01d01t11.flac:167376b08f7a6bc1160366788ad69241
gsbg2009-12-01d01t12.flac:700e1e708bbe34743f2845188ce30857
gsbg2009-12-01d01t13.flac:80c0738a8587ce1a87f4e8d420885304
gsbg2009-12-01d01t14.flac:3c669beaba7a45ce889a2a0fdfbe7bfc
gsbg2009-12-01d01t15.flac:d0e445af169baed6fe460c4bfbc4e04f
gsbg2009-12-01d01t16.flac:b53b5e8997df30a4e4c61263be24fff1
gsbg2009-12-01d01t17.flac:56ca6e919a9a655e79943ffc5c4b0e5e
gsbg2009-12-01d02t01.flac:ef6cfffd80641402ea2771aa0c9e4a32
gsbg2009-12-01d02t02.flac:8eaeb2cf30637a5501d87e9b4e6f9a4b
gsbg2009-12-01d02t03.flac:0293785a14b087e83b2b9077b144ad79
gsbg2009-12-01d02t04.flac:bf72f18e5924093b76c49b2239dbba17
gsbg2009-12-01d02t05.flac:d00330e9a37c5b254671e69e772a4fc1
gsbg2009-12-01d02t06.flac:bb26c8f817c9a4b971feb55da4a2ed31
gsbg2009-12-01d02t07.flac:c965dc2759cbe73b94adfdc42a8dc9de
gsbg2009-12-01d02t08.flac:ff5ee3ebedf10f24ebabd4cdd2a7e508
gsbg2009-12-01d03t01.flac:583aff920d0c1af62ef8fe97750b2717
gsbg2009-12-01d03t02.flac:72594bf37754ae52f6b4846238f34240
gsbg2009-12-01d03t03.flac:73ae167d0282f18f3c47bfaeb92f0af6
gsbg2009-12-01d03t04.flac:8e570c2bfc587762a116e5ff5c88e0dc
gsbg2009-12-01d03t05.flac:2f2c8826fe183eb87abdcda3c0598a52
gsbg2009-12-01d03t06.flac:6a4cae511c1f462b4ddba23fb94343b1
gsbg2009-12-01d03t07.flac:189228c240cded90173ce8b658f795eb
gsbg2009-12-01d03t08.flac:dfd50b95ec8b9aca280654fc31c99c16
gsbg2009-12-01d03t09.flac:b1759031529dc4f7e49a42ef3cb690ec
gsbg2009-12-01d03t10.flac:58f19eca74cf4ad3f43bb5948d4d8ec4
gsbg2009-12-01d03t11.flac:4c2c42417c9c009bca591de63326c686

Shntool

    length     expanded size    cdr  WAVE problems  fmt   ratio  filename
     1:02.00       10936844 B   ---   --   ---xx   flac  0.2613  gsbg2009-12-01d01t01.flac
     2:23.49       25340492 B   ---   --   ---xx   flac  0.4864  gsbg2009-12-01d01t02.flac
     6:33.41       69421676 B   ---   --   ---xx   flac  0.4431  gsbg2009-12-01d01t03.flac
     3:14.40       34315724 B   ---   --   ---xx   flac  0.4863  gsbg2009-12-01d01t04.flac
     3:14.40       34315724 B   ---   --   ---xx   flac  0.4759  gsbg2009-12-01d01t05.flac
     8:06.59       85869212 B   ---   --   ---xx   flac  0.4199  gsbg2009-12-01d01t06.flac
     3:26.43       36439580 B   ---   --   ---xx   flac  0.5028  gsbg2009-12-01d01t07.flac
     1:52.00       19756844 B   ---   --   ---xx   flac  0.3815  gsbg2009-12-01d01t08.flac
     3:24.71       36152636 B   ---   --   ---xx   flac  0.4408  gsbg2009-12-01d01t09.flac
     3:46.64       40016972 B   ---   --   ---xx   flac  0.4666  gsbg2009-12-01d01t10.flac
     4:24.43       46670780 B   ---   --   ---xx   flac  0.3826  gsbg2009-12-01d01t11.flac
     4:55.11       52063916 B   ---   --   ---xx   flac  0.4512  gsbg2009-12-01d01t12.flac
     6:34.50       69619244 B   ---   --   ---xx   flac  0.4617  gsbg2009-12-01d01t13.flac
     7:43.66       81828476 B   ---   --   ---xx   flac  0.4494  gsbg2009-12-01d01t14.flac
     3:56.52       41752748 B   ---   --   ---xx   flac  0.4549  gsbg2009-12-01d01t15.flac
     5:44.27       60745148 B   ---   --   ---xx   flac  0.4703  gsbg2009-12-01d01t16.flac
     2:50.17       30028028 B   ---   --   ---xx   flac  0.4989  gsbg2009-12-01d01t17.flac
     2:53.71       30684236 B   ---   --   ---xx   flac  0.4489  gsbg2009-12-01d02t01.flac
     4:10.59       44238812 B   ---   --   ---xx   flac  0.4836  gsbg2009-12-01d02t02.flac
     4:48.16       50840876 B   ---   --   ---xx   flac  0.4620  gsbg2009-12-01d02t03.flac
     4:14.16       44843276 B   ---   --   ---xx   flac  0.4915  gsbg2009-12-01d02t04.flac
    11:21.47      120238988 B   ---   --   ---xx   flac  0.4876  gsbg2009-12-01d02t05.flac
     2:01.72       21513788 B   ---   --   ---xx   flac  0.3578  gsbg2009-12-01d02t06.flac
    11:21.21      120177836 B   ---   --   ---xx   flac  0.4085  gsbg2009-12-01d02t07.flac
     5:17.63       56067020 B   ---   --   ---xx   flac  0.5025  gsbg2009-12-01d02t08.flac
     2:14.59       23776412 B   ---   --   ---xx   flac  0.3599  gsbg2009-12-01d03t01.flac
     6:20.72       67201388 B   ---   --   ---xx   flac  0.4943  gsbg2009-12-01d03t02.flac
     4:12.58       44589260 B   ---   --   ---xx   flac  0.4532  gsbg2009-12-01d03t03.flac
     1:19.74       14109692 B   ---   --   ---xx   flac  0.3344  gsbg2009-12-01d03t04.flac
     5:59.26       63388796 B   ---   --   ---xx   flac  0.4738  gsbg2009-12-01d03t05.flac
     9:30.11      100573916 B   ---   --   ---xx   flac  0.4563  gsbg2009-12-01d03t06.flac
     4:51.54       51459452 B   ---   --   ---xx   flac  0.4755  gsbg2009-12-01d03t07.flac
     4:38.64       49189772 B   ---   --   ---xx   flac  0.4783  gsbg2009-12-01d03t08.flac
     1:15.23       13284140 B   ---   --   ---xx   flac  0.3830  gsbg2009-12-01d03t09.flac
     4:28.64       47425772 B   ---   --   ---xx   flac  0.4533  gsbg2009-12-01d03t10.flac
     5:51.04       61925852 B   ---   --   ---xx   flac  0.4906  gsbg2009-12-01d03t11.flac
   170:08.47     1800803328 B                            0.4555  (36 files)






Show Checksums
ffp
gsbg2009-12-01d01t01.flac:3ca07919a6027955379a20b37382c6ca
gsbg2009-12-01d01t02.flac:877c0828e5e18246d1a7da32419e855d
gsbg2009-12-01d01t03.flac:8ce795d0e5811dc229917ceff22e8f65
gsbg2009-12-01d01t04.flac:703c5e7904a807a42b68adc5492445cd
gsbg2009-12-01d01t05.flac:0b5348aa3bdeeb646b81bc99ff7566b4
gsbg2009-12-01d01t06.flac:12da1a25e83f96a5ab9db78f9250d871
gsbg2009-12-01d01t07.flac:70781286e559fa212ded03559eba96df
gsbg2009-12-01d01t08.flac:a8b66ba2680f6b99c5f6756015254c9b
gsbg2009-12-01d01t09.flac:10bda4cf38d71385e9ca1e1d2dee4826
gsbg2009-12-01d01t10.flac:a17c287790ac26f4cfb310ed16e081bd
gsbg2009-12-01d01t11.flac:167376b08f7a6bc1160366788ad69241
gsbg2009-12-01d01t12.flac:700e1e708bbe34743f2845188ce30857
gsbg2009-12-01d01t13.flac:80c0738a8587ce1a87f4e8d420885304
gsbg2009-12-01d01t14.flac:3c669beaba7a45ce889a2a0fdfbe7bfc
gsbg2009-12-01d01t15.flac:d0e445af169baed6fe460c4bfbc4e04f
gsbg2009-12-01d01t16.flac:b53b5e8997df30a4e4c61263be24fff1
gsbg2009-12-01d01t17.flac:56ca6e919a9a655e79943ffc5c4b0e5e
gsbg2009-12-01d02t01.flac:ef6cfffd80641402ea2771aa0c9e4a32
gsbg2009-12-01d02t02.flac:8eaeb2cf30637a5501d87e9b4e6f9a4b
gsbg2009-12-01d02t03.flac:0293785a14b087e83b2b9077b144ad79
gsbg2009-12-01d02t04.flac:bf72f18e5924093b76c49b2239dbba17
gsbg2009-12-01d02t05.flac:d00330e9a37c5b254671e69e772a4fc1
gsbg2009-12-01d02t06.flac:bb26c8f817c9a4b971feb55da4a2ed31
gsbg2009-12-01d02t07.flac:c965dc2759cbe73b94adfdc42a8dc9de
gsbg2009-12-01d02t08.flac:ff5ee3ebedf10f24ebabd4cdd2a7e508
gsbg2009-12-01d03t01.flac:583aff920d0c1af62ef8fe97750b2717
gsbg2009-12-01d03t02.flac:72594bf37754ae52f6b4846238f34240
gsbg2009-12-01d03t03.flac:73ae167d0282f18f3c47bfaeb92f0af6
gsbg2009-12-01d03t04.flac:8e570c2bfc587762a116e5ff5c88e0dc
gsbg2009-12-01d03t05.flac:2f2c8826fe183eb87abdcda3c0598a52
gsbg2009-12-01d03t06.flac:6a4cae511c1f462b4ddba23fb94343b1
gsbg2009-12-01d03t07.flac:189228c240cded90173ce8b658f795eb
gsbg2009-12-01d03t08.flac:dfd50b95ec8b9aca280654fc31c99c16
gsbg2009-12-01d03t09.flac:b1759031529dc4f7e49a42ef3cb690ec
gsbg2009-12-01d03t10.flac:58f19eca74cf4ad3f43bb5948d4d8ec4
gsbg2009-12-01d03t11.flac:4c2c42417c9c009bca591de63326c686

Comments
Add Comment
Date User Comment