Browse Collections Artists Sources   Search Dates

Add Show    List Management    Help


Grateful Dead 11/21/73
Denver Coliseum, Denver, CO
Comments Add Comment    Source Collectors    Add to Collection    Add to Want List    History
Source # 133522 Other Sources
Entered by Matt Vernon
Checksums ffp , flac-md5
Disc Counts 0 / 0
Media Size Compressed: 976.94 MB (1024391468 bytes)
Uncompressed: 1.85 GB (1987951616 bytes)
Date Circulated
Date Added
06/16/2015
06/16/2015
Source Summary flac; 2 Source Matrix by Dusborne; Soundboard(shnid:97468) SBD -> Master Reel -> Cassette -> Dat -> CD; CD -> Cool Edit Pro v2.0 -> Samplitude Professional v9.12 -> FLAC and Audience(shnid:22096) Sony 1-point stereo mic > Sony TC-124) > Nak Dragon playback > ART DI/O > HD > Cool Edit 2000 > master CD > Samsung SW-232B extraction (EAC v0.95 prebeta 4) > sector boundary verification (shntool v1.01) > .shn encoding (mkwACT v0.97 beta 1) 
  Archive
Source Information - Download Text | Download Zip
Grateful Dead
November 21, 1973
Denver Coliseum
Denver, CO

2 Source Matrix

Soundboard(shinid:97468)
--------------------------------------------------------------------------------------------------
gd73-11-21.sbd.miller-fix.97468.sbeok.flac16

Recording Info:
SBD -> Master Reel -> Cassette -> Dat -> CD

Transfer Info:
CD -> Cool Edit Pro v2.0 -> Samplitude Professional v9.12 -> FLAC
(3 Discs Audio / 2 Discs FLAC)

All Transfers and Mastering By Charlie Miller
[email protected]
February 16, 2009

Patch Info:
Sony Stereo Mic -> Master Cassette -> CD (shnid=22096) supplies:
Me And My Uncle (0:17 - 0:19)
Dire Wolf (3:11 - 3:13)
They Love Each Other (2:29 - 2:50)
Let It Grow (2:33 - 2:58)
Playing In The Band d2t08 (2:34 - 2:54)
Goin' Down The Road Feeling Bad (4:40 - 5:05)

Notes:
-- All disc changes are seamless
-- Fixed swapped channels on shnid=88612
-- Cleaned up a lot of flaws, noises, etc.
-- This source does not have some of the cuts on other sources
-- Pitch corrected with Cool Edit Pro (-2.7%)
-- Thanks to Joe B. Jones and Rob Bertrando for their help
-- Mexican Hat Dance Tuning after Big Railroad Blues
-- Dark Star Jam contains Wharf Rat tease

Audience(shinid:22096)
----------------------------------------------------------------------------------------------------
gd73-11-21.finley.warner.22096.sbeok.shnf

MAC (Taped by Glen Finley, Sony 1-point stereo mic > Sony TC-124) > Nak Dragon playback > ART DI/O > HD >
Cool Edit 2000 > master CD > Samsung SW-232B extraction (EAC v0.95 prebeta 4) >
sector boundary verification (shntool v1.01) > .shn encoding (mkwACT v0.97 beta 1)

A > D by David Minches
EAC > SHN by Jack Warner (jackmw1ATsbcglobalDOTnet)

Notes:
Missing about 13:40 from the big jam, which part was not recorded by this taper.  Ouch!
-------------------------------------------------------------------------------------------------------------

---Thank you Charlie Miller for your work on the SBD.
---Thank you Joe B. Jones and Rob Bertrando for your work on the SBD.
---Thank you Cary Wolfson for recording the show.
---Thank you David Minches for the AUD transfer.
---Thank you Jack Warner for your work on the AUD.
---Thank you Bruce "The Big Woods" for the artwork.
---Thank you Germain for your advice, encouragement, guidance and seeding.

Matrix by dusborne

06-08-2015
------------------------------------------------------------------------------------------------------------

Set 1

101 - gd73-11-21s1t01 - Tuning
102 - gd73-11-21s1t02 - Me & My Uncle
103 - gd73-11-21s1t03 - Sugaree
104 - gd73-11-21s1t04 - Jack Straw
105 - gd73-11-21s1t05 - Dire Wolf
106 - gd73-11-21s1t06 - Black Throated Wind
107 - gd73-11-21s1t07 - Big Railroad Blues
108 - gd73-11-21s1t08 - Mexicali Blues
109 - gd73-11-21s1t09 - They Love Each Other
110 - gd73-11-21s1t10 - Looks Like Rain
111 - gd73-11-21s1t11 - Here Comes Sunshine
112 - gd73-11-21s1t12 - Big River
113 - gd73-11-21s1t13 - Brokedown Palace
114 - gd73-11-21s1t14 - Weather Report Suite

Set 2

201 - gd73-11-21s2t01 - Tuning
202 - gd73-11-21s2t02 - Mississippi Half-Step Uptown Toodeloo ->
203 - gd73-11-21s2t03 - Playing in the Band -> (MTX -> SBD)
204 - gd73-11-21s2t04 - El Paso -> (SBD)
205 - gd73-11-21s2t05 - Playing in the Band -> (SBD)
206 - gd73-11-21s2t06 - Dark Star Jam -> (SBD)
207 - gd73-11-21s2t07 - Wharf Rat -> (SBD -> MTX)
208 - gd73-11-21s2t08 - Playing in the Band ->
209 - gd73-11-21s2t09 - Morning Dew
210 - gd73-11-21s2t10 - Truckin' ->
211 - gd73-11-21s2t11 - Nobody's Fault But Mine ->
212 - gd73-11-21s2t12 - Going Down the Road Feeling Bad ->
213 - gd73-11-21s2t13 - One More Saturday Night

Encore
214 - gd73-11-21s2t14 - Uncle John's Band
---------------------------------------------------------------------------------------------------------

Tagging notes:
Show information is embedded within the header of each flac file.
It will display on any player capable of directly playing flac
files. If converted to wav during processing, all tags will be
stripped, however audio data will remain unaffected. If you must
transcode to a lossy format, do so directly Flac > Lossy.
Use ffp to validate audio integrity.
Md5 values will change if tagging is altered.
Dave Usborne 06-08-2015
-------------------------------------------------------------------------------------------------------

    length     expanded size    cdr  WAVE problems  fmt   ratio  filename
     0:59.63       10555820 B   ---   --   ---xx   flac  0.4946  gd73-11-21s1t01.flac
     3:06.20       32857484 B   ---   --   ---xx   flac  0.5447  gd73-11-21s1t02.flac
     7:50.73       83079740 B   ---   --   ---xx   flac  0.5281  gd73-11-21s1t03.flac
     5:12.33       55114460 B   ---   --   ---xx   flac  0.5434  gd73-11-21s1t04.flac
     4:39.30       49286204 B   ---   --   ---xx   flac  0.5334  gd73-11-21s1t05.flac
     6:44.32       71340908 B   ---   --   ---xx   flac  0.5394  gd73-11-21s1t06.flac
     5:53.58       62405660 B   ---   --   ---xx   flac  0.5319  gd73-11-21s1t07.flac
     3:26.35       36420764 B   ---   --   ---xx   flac  0.5505  gd73-11-21s1t08.flac
     5:30.28       58277900 B   ---   --   ---xx   flac  0.5233  gd73-11-21s1t09.flac
     7:42.38       81586220 B   ---   --   ---xx   flac  0.4907  gd73-11-21s1t10.flac
    11:25.49      120949292 B   ---   --   ---xx   flac  0.5099  gd73-11-21s1t11.flac
     5:51.57       62050508 B   ---   --   ---xx   flac  0.5220  gd73-11-21s1t12.flac
     5:47.61       61354316 B   ---   --   ---xx   flac  0.5050  gd73-11-21s1t13.flac
    14:35.05      154361804 B   ---   --   ---xx   flac  0.4981  gd73-11-21s1t14.flac
     0:14.12        2497868 B   ---   --   ---xx   flac  0.5689  gd73-11-21s2t01.flac
     7:47.59       82517612 B   ---   --   ---xx   flac  0.5219  gd73-11-21s2t02.flac
    12:02.22      127412588 B   ---   --   ---xx   flac  0.5268  gd73-11-21s2t03.flac
     3:56.21       41679836 B   ---   --   ---xx   flac  0.5188  gd73-11-21s2t04.flac
     0:54.67        9683228 B   ---   --   ---xx   flac  0.5631  gd73-11-21s2t05.flac
     3:28.51       36811196 B   ---   --   ---xx   flac  0.5112  gd73-11-21s2t06.flac
     8:07.70       86071484 B   ---   --   ---xx   flac  0.4945  gd73-11-21s2t07.flac
    13:34.25      143648444 B   ---   --   ---xx   flac  0.4855  gd73-11-21s2t08.flac
    12:34.63      133153820 B   ---   --   ---xx   flac  0.4742  gd73-11-21s2t09.flac
    10:46.31      114027356 B   ---   --   ---xx   flac  0.5499  gd73-11-21s2t10.flac
     2:32.37       26899868 B   ---   --   ---xx   flac  0.5355  gd73-11-21s2t11.flac
     8:25.35       89164364 B   ---   --   ---xx   flac  0.5212  gd73-11-21s2t12.flac
     7:00.59       74226812 B   ---   --   ---xx   flac  0.5236  gd73-11-21s2t13.flac
     7:36.33       80516060 B   ---   --   ---xx   flac  0.5169  gd73-11-21s2t14.flac
   187:49.42     1987951616 B                            0.5153  (28 files)

Show Checksums
ffp
gd73-11-21s1t01.flac:c42d88f5d02d9d1cb629fef2c72a6415
gd73-11-21s1t02.flac:a2a73f82ae0456d1110d03164bad2e51
gd73-11-21s1t03.flac:e4b0b3685682b0e24cc724e4f70b9fca
gd73-11-21s1t04.flac:c6ee15cbef5326e2cb0f36f88cd93c63
gd73-11-21s1t05.flac:28fd847a718342fa5d056248e29f2375
gd73-11-21s1t06.flac:a6e29d1fd073d4d5872c13f1c89788bd
gd73-11-21s1t07.flac:c19bff4095cb6a9e3611339d8b84c125
gd73-11-21s1t08.flac:f5e12f0c75b711cfe85bb1f7d82a4656
gd73-11-21s1t09.flac:25d3f06f4e6d22584ccc1729d1645230
gd73-11-21s1t10.flac:448b5e95a960de4dcdc88c2eaf2f306c
gd73-11-21s1t11.flac:6d336109e8fce28fb45a24d13cdf1c4e
gd73-11-21s1t12.flac:2053d3acdea530967382286b7cbe24c8
gd73-11-21s1t13.flac:45ee21e284c18085dbf7272e6df21310
gd73-11-21s1t14.flac:3ccd35f714130135e8c0928d40de88f6
gd73-11-21s2t01.flac:76bf22a0a4607ba780c8320ae6999fa4
gd73-11-21s2t02.flac:bcb8562bc3823a24061f0f367099a19e
gd73-11-21s2t03.flac:2ff29ef8e8330c188377b5fbefdfaafd
gd73-11-21s2t04.flac:af34958db1c7dbb3a3b44c2261c6a895
gd73-11-21s2t05.flac:691f8d6f583103cc3e36d1202effbfe7
gd73-11-21s2t06.flac:f4e24ddeca83d6d292657a4e4e849624
gd73-11-21s2t07.flac:64c399f857d82ad3e4b01a769c4f57b8
gd73-11-21s2t08.flac:38f619bb5019d3444c337f1b2a2e4e5e
gd73-11-21s2t09.flac:12c1aabe0622f742169bdeb46947ef74
gd73-11-21s2t10.flac:35eac239083f65ca4ca603aa4a54ae82
gd73-11-21s2t11.flac:f1100ebc4c04cfc6cc36da206b43cbb7
gd73-11-21s2t12.flac:83642a18da20c16973191c0aa580933b
gd73-11-21s2t13.flac:2d0e0798b38330e61056ea367e8f5c4b
gd73-11-21s2t14.flac:782e626d6319ad8f84636998a582a2fc
flac-md5
0bf6eafe63c9ef995f9fea2eb8e8de1c *gd73-11-21s1t01.flac
436e251e09a9acdce6c9a0ecf650fa56 *gd73-11-21s1t02.flac
4ec73f78654d0aeb6cd2f69e86ec8883 *gd73-11-21s1t03.flac
db3f07471f5571bb90f5050aaf90e4e3 *gd73-11-21s1t04.flac
ebf43fdcb25205a1a535002a2730e368 *gd73-11-21s1t05.flac
95072ff804fceb3fe87a67c3202af829 *gd73-11-21s1t06.flac
53a0406c139592c33b5493574cc4c29c *gd73-11-21s1t07.flac
6a9bac8d9756216b704192e0877c8301 *gd73-11-21s1t08.flac
65f1295f140ee6d798126ded01dca1d9 *gd73-11-21s1t09.flac
56552280ecbd1824c667977aeee2811d *gd73-11-21s1t10.flac
93d60a9827a7f04e6fec13093b7854c9 *gd73-11-21s1t11.flac
577e855ce6e1d743060df9a3548f941e *gd73-11-21s1t12.flac
76cb3f593b7d296d4921b2a4d7ff6708 *gd73-11-21s1t13.flac
5f8a69e0840a51e06873d783492da37a *gd73-11-21s1t14.flac
885be097596456de4c4ae502b5a79be9 *gd73-11-21s2t01.flac
f9e38e79c04f7a02cfacaf90669bbd06 *gd73-11-21s2t02.flac
7a0748253782df640195cfa4f598682c *gd73-11-21s2t03.flac
fd88cdc06069a62bff14870ae029dfac *gd73-11-21s2t04.flac
042bef024c4cb12b84b65046acf616ec *gd73-11-21s2t05.flac
e00921458719816c7ca93c80840fab71 *gd73-11-21s2t06.flac
e7eae6b99053acebc1af1b44f3bae17b *gd73-11-21s2t07.flac
ad1733ea456a28ce1a82a2b3b5693e1b *gd73-11-21s2t08.flac
f641d78623ebcc02abb5591c7c2ea8bc *gd73-11-21s2t09.flac
f87bab427090cc08e43df885b68ad36e *gd73-11-21s2t10.flac
4c85fb48b5430a3dde2234c5ff34b434 *gd73-11-21s2t11.flac
3dfb3f26e373ae70e782311fde63fe07 *gd73-11-21s2t12.flac
a7b7ed26be9e6fb39aefb3f58b3f5a5a *gd73-11-21s2t13.flac
30f335a62e73eec43e774dc25be71f8f *gd73-11-21s2t14.flac

Comments
Add Comment
Other Sources (comments)
via D. Barrick (hurtsme2);... (9) MAC (Taped by Glen Finley,... (0) MSR > DAT > CD > Samsung... (1) flac16; Recording... (0) flac16; Recording... (1)
Date User Comment