Browse Collections Artists Sources   Search Dates

Add Show    List Management    Help


Grateful Dead 12/06/81
Rosemont Horizon, Rosemont, IL
Comments Add Comment    Source Collectors    Add to Collection    Add to Want List    History
Source # 133563 Other Sources
Entered by Gary Field
Checksums flac-md5 , ffp
Disc Counts 0 / 0
Media Size Compressed: 982.55 MB (1030274088 bytes)
Uncompressed: 1.65 GB (1775372888 bytes)
Date Circulated
Date Added
06/19/2015
06/20/2015
Source Summary flac16; Recording Info: SBD -> Cassette Master -> Dat; Transfer Info: Dat -> Samplitude Professional v11.1 -> FLAC; All Transfers and Mastering By Charlie Miller 
  Archive
Source Information - Download Text | Download Zip
Grateful Dead - December 6, 1981
Rosemont Horizon Arena - Rosemont, IL

Recording Info:
SBD -> Cassette Master -> Dat

Transfer Info:
Dat -> Samplitude Professional v11.1 -> FLAC
(3 Discs Audio / 2 Discs FLAC)

All Transfers and Mastering By Charlie Miller
[email protected]
July 5, 2010

Patch Info:
SBD -> Cassette Master -> Reel -> Dat supplies:
New Minglewood Blues (complete track)
Sugaree (complete track)
Mama Tried (complete track)
Mexicali Blues (complete track)
Candyman (complete track)
Little Red Rooster (complete track)
Samson And Delilah (4:23 - 9:37)
Not Fade Away (4:28 - 7:57)

Notes:
-- All disc changes are seamless

Set 1:
d1t01 - New Minglewood Blues
d1t02 - Sugaree
d1t03 - Mama Tried ->
d1t04 - Mexicali Blues
d1t05 - Candyman ->
d1t06 - Little Red Rooster
d1t07 - Tennessee Jed ->
d1t08 - Looks Like Rain
d1t09 - Jack-A-Roe
d2t01 - Beat It On Down The Line
d2t02 - China Cat Sunflower ->
d2t03 - I Know You Rider

Set 2:
d2t04 - Samson And Delilah
d2t05 - To Lay Me Down ->
d2t06 - Estimated Prophet ->
d2t07 - Eyes Of The World ->
d2t08 - Drums ->
d3t01 - Space ->
d3t02 - Not Fade Away ->
d3t03 - Wharf Rat ->
d3t04 - Good Lovin'

Encore:
d3t05 - Brokedown Palace


SHNTOOL OUTPUT:
   length     expanded size    cdr  WAVE problems  fmt   ratio  filename
    8:39.11       91577516 B   ---   --   ---xx   flac  0.6064  gd81-12-06d1t01.flac
   12:02.67      127518428 B   ---   --   ---xx   flac  0.6278  gd81-12-06d1t02.flac
    2:29.72       26452988 B   ---   --   ---xx   flac  0.6521  gd81-12-06d1t03.flac
    6:27.58       68403260 B   ---   --   ---xx   flac  0.6101  gd81-12-06d1t04.flac
    6:20.61       67175516 B   ---   --   ---xx   flac  0.6263  gd81-12-06d1t05.flac
    7:46.22       82254188 B   ---   --   ---xx   flac  0.6325  gd81-12-06d1t06.flac
    8:23.71       88896236 B   ---   --   ---xx   flac  0.5797  gd81-12-06d1t07.flac
    9:02.57       95742908 B   ---   --   ---xx   flac  0.5251  gd81-12-06d1t08.flac
    5:23.11       57003116 B   ---   --   ---xx   flac  0.5525  gd81-12-06d1t09.flac
    2:59.33       31653260 B   ---   --   ---xx   flac  0.6187  gd81-12-06d2t01.flac
    5:54.10       62469164 B   ---   --   ---xx   flac  0.5929  gd81-12-06d2t02.flac
    7:46.08       82221260 B   ---   --   ---xx   flac  0.6033  gd81-12-06d2t03.flac
    9:40.19      102356732 B   ---   --   ---xx   flac  0.5620  gd81-12-06d2t04.flac
    8:47.65       93115724 B   ---   --   ---xx   flac  0.5391  gd81-12-06d2t05.flac
   10:20.17      109408028 B   ---   --   ---xx   flac  0.5815  gd81-12-06d2t06.flac
    9:03.43       95886380 B   ---   --   ---xx   flac  0.5946  gd81-12-06d2t07.flac
    8:13.45       87071084 B   ---   --   ---xx   flac  0.5175  gd81-12-06d2t08.flac
    4:53.26       51746396 B   ---   --   ---xx   flac  0.4758  gd81-12-06d3t01.flac
    9:41.17      102528428 B   ---   --   ---xx   flac  0.5908  gd81-12-06d3t02.flac
    9:07.62       96636668 B   ---   --   ---xx   flac  0.5520  gd81-12-06d3t03.flac
    8:18.62       87993068 B   ---   --   ---xx   flac  0.6141  gd81-12-06d3t04.flac
    6:21.23       67262540 B   ---   --   ---xx   flac  0.5362  gd81-12-06d3t05.flac
  167:44.35     1775372888 B                            0.5803  (22 files)


Show Checksums
flac-md5
f43c80343d3b64ba3bf93e8360c7da13 *gd81-12-06d1t01.flac
8fdf327b4b1912a8eb0dfc945907aaee *gd81-12-06d1t02.flac
a3bbd43683dafb9f1ddb562e79b18650 *gd81-12-06d1t03.flac
93dffc234e289790bc5e77ce295245d1 *gd81-12-06d1t04.flac
3d75105841052279388f8ed8fb29a960 *gd81-12-06d1t05.flac
99eb0a04de21d428e0ba0a834b4765b9 *gd81-12-06d1t06.flac
240a3a4afa31116592510af792f60450 *gd81-12-06d1t07.flac
838a912192bf1e80ad3ea786199fa40d *gd81-12-06d1t08.flac
da2e446bc02c7f4285672fd237629ab2 *gd81-12-06d1t09.flac
ff7f0c6133065e38854f85b5027f7309 *gd81-12-06d2t01.flac
68086c002ea8e925cb6207bdd73f5139 *gd81-12-06d2t02.flac
d1e278e60f55c0d9ee0264eeb40f057e *gd81-12-06d2t03.flac
26fc37447e94b3897be1ee06fafab7b4 *gd81-12-06d2t04.flac
5c7ccbe8a9967aa77f550267eb5378b3 *gd81-12-06d2t05.flac
31052c03204172dd19bb3287f9f0858f *gd81-12-06d2t06.flac
079ed2dacc63ea195dd253a80933746b *gd81-12-06d2t07.flac
38ec19309b67161be6c2339486dad0e9 *gd81-12-06d2t08.flac
648ac4f89194e3e308218b3ad3171c44 *gd81-12-06d3t01.flac
3c10374ea80dd09f54f267bd1e7e3d4a *gd81-12-06d3t02.flac
aa273bbc89f39dc6787e4330b6927a55 *gd81-12-06d3t03.flac
cec1a7ff9d1c529e8a9843d61269683c *gd81-12-06d3t04.flac
c1d21b2f240fa4de52e1e8bec96477f7 *gd81-12-06d3t05.flac
ffp
gd81-12-06d1t01.flac:ba52b6180169dbb6db2e526fec58d900
gd81-12-06d1t02.flac:cebab74a2417d0528ea013e8283cdc48
gd81-12-06d1t03.flac:d31a13c6a297a5bda53422011c7cb73a
gd81-12-06d1t04.flac:4e48a3fedc27f84508e7c0ee56f37f2b
gd81-12-06d1t05.flac:562ef45faf69faeb369a58b3c2a06911
gd81-12-06d1t06.flac:19e79d75746887bbe2e17035186ea76f
gd81-12-06d1t07.flac:0800dcab878510e7d5aa8fb20b6822bc
gd81-12-06d1t08.flac:83dc188763b25b8d03d80d4677deef42
gd81-12-06d1t09.flac:575c00782eb37a4941a121c94675b1f3
gd81-12-06d2t01.flac:e81ab5ee2b57654675c9ba7c14bbe0df
gd81-12-06d2t02.flac:6e5b065e270a8d06696d17632dc5bd94
gd81-12-06d2t03.flac:9a48e1c3dd718e86a287b8c308cf5ae6
gd81-12-06d2t04.flac:aba6370d521211adf87cffc954066532
gd81-12-06d2t05.flac:fbcba0a5530e8768e35e9f4a6f3eb79c
gd81-12-06d2t06.flac:fe4452868e4262b97e1fe367566ff046
gd81-12-06d2t07.flac:0354241e12551cfd867076ad4c19e9d0
gd81-12-06d2t08.flac:b1361451aaba61564648c770c2ca7cb4
gd81-12-06d3t01.flac:a57a32fa247e91b55334b04bd1b6de84
gd81-12-06d3t02.flac:7cc7b4e01430972afe4560b734637f8b
gd81-12-06d3t03.flac:370a9947d822b4ee076e0290613d46c6
gd81-12-06d3t04.flac:1597f78095c47678639641703dd086fb
gd81-12-06d3t05.flac:ea8813ba766ef1993f7969f4b344cdb4

Comments
Add Comment
Other Sources (comments)
Unknown Aud>DAT>CDR; via... (0) flac16;Recording by... (2) flac16; AUD Master... (0) flac16; Recording... (0) flac16; Recorded by... (0) flac24; AUD: First... (0) flac16; AUD: First... (0)
Date User Comment
06/20/2015 charliemiller I'm 99% sure that this is actually a Master Reel, not a Master Cassette.