Browse Collections Artists Sources   Search Dates

Add Show    List Management    Help


Drive-By Truckers 02/13/15
40 Watt Club, Athens, GA
Comments Add Comment    Source Collectors    Add to Collection    Add to Want List    History
Source # 133575 Other Sources
Entered by
Checksums ffp
Disc Counts 0 / 0
Media Size
Date Circulated
Date Added
02/14/2015
06/20/2015
Source Summary Source: Schoeps CCM4V'S(din)>Lunatec V2>Benchmark AD2K> Sound Devices 722 (24/48)
FOB/DFC/KFC/ZFC/AARP 45' From Stage, 7' High
DSP: Sound Devices 722>Sound Forge 10.0>CD Wave>flac(16)
ID3 Tagged In Foobar 2000
Recorded By: Z-Man 
Source Information - Download Text | Download Zip
Drive-By Truckers
40 Watt Club
Athens, Georgia
2/13/2015

Source: Schoeps CCM4V'S(din)>Lunatec V2>Benchmark AD2K>
Sound Devices 722 (24/48)
FOB/DFC/KFC/ZFC/AARP 45' From Stage, 7' High
DSP: Sound Devices 722>Sound Forge 10.0>CD Wave>flac(16)
ID3 Tagged In Foobar 2000
Recorded By: Z-Man
Seeded By: Z-Man

Disc I

01 Patterson Banter
02 The Living Bubba
03 One Of These Days
04 Heathens
05 Uncle Frank
06 *Feb 14
07 Shit Shots >
08 White Knuckle  >
09 Get Your Ass On The Plane >
10 Ain't Talking 'Bout Love >
11 Women Without Whiskey
12 Margo And Harold >
13 Where The Devil Don't Stay >
14 Sinkhole

Disc II

01 Space City
02 Something's Gotta Give
03 First Air Of Autumn
04 Banter
05 Runaway Train
06 Ghost To Most
07 Let There Be Rock
Encore:
08 Troglodyte (Caveman)
09 Marry Me >
10 Ronnie And Neil
11 English Oceans
12 Daddy Needs A Drink
13 Love Like This >
14 #People Who Died

* With Lydia Loveless On Vocals
# With Jeff Watley On Guitar

dbt2015-02-13d01t01.flac:42fc434350cb39b24adfe0fb06c936ed
dbt2015-02-13d01t02.flac:fe228410d7d3e9c437336a77cc08bde6
dbt2015-02-13d01t03.flac:5277fda50723658c256e50b3eaec0b23
dbt2015-02-13d01t04.flac:6c7ab65e0bc7807298f7b328e8a553fa
dbt2015-02-13d01t05.flac:c7bd52a0e7bde565b14a1273c4cd919c
dbt2015-02-13d01t06.flac:3d750c61410167031fb3a801f07a89cb
dbt2015-02-13d01t07.flac:6bff618447b8843b52d53b0c537312fd
dbt2015-02-13d01t08.flac:26b5f924b37e0e71f6e27ee0fb3f46c8
dbt2015-02-13d01t09.flac:eb74e3686d20af86e18c0dbff124cb38
dbt2015-02-13d01t10.flac:6277d0836216ea4bc0337a1ed6b9653e
dbt2015-02-13d01t11.flac:36a463f76a57050c1724bd67ed09e903
dbt2015-02-13d01t12.flac:78c3f360087535943f0819a80a2d2ce3
dbt2015-02-13d01t13.flac:7287201ba3819101c29569d220065079
dbt2015-02-13d01t14.flac:bac478931997383a9bf441c1b6a3645a
dbt2015-02-13d02t01.flac:6a5c3d88c5d35cbaef2ad51c2a727ebb
dbt2015-02-13d02t02.flac:b781d407368231abcd07ef11cf8fc271
dbt2015-02-13d02t03.flac:b424330bd3c56b0b7d1e867da3ad35b3
dbt2015-02-13d02t04.flac:02fe95d8849d46055d09e78113a9d279
dbt2015-02-13d02t05.flac:93de993fbbcb4199fa83b3209c05fd39
dbt2015-02-13d02t06.flac:8fa9a238216082df7e4f859b19685a45
dbt2015-02-13d02t07.flac:b64578e87d79b75a8fb19ffc190d2330
dbt2015-02-13d02t08.flac:ec23b01973446b2c499d17f7e35568eb
dbt2015-02-13d02t09.flac:7411bea3f6e0c1ebaf396476e1596364
dbt2015-02-13d02t10.flac:fd36d2b0aebb689563e74d5b2028551e
dbt2015-02-13d02t11.flac:28244683caf37309c744eab42c1429ec
dbt2015-02-13d02t12.flac:0577bc2fcc9d59620243f110231d28ad
dbt2015-02-13d02t13.flac:d1405aac7c6d0f709f56e426c1d78688
dbt2015-02-13d02t14.flac:75d424e234aa1260cf14fbd6f5596896

length     expanded size    cdr  WAVE problems  fmt   ratio  filename
     1:22.42       14563628 B   ---   --   ---xx   flac  0.3570  dbt2015-02-13d01t01.flac
     6:56.46       73490636 B   ---   --   ---xx   flac  0.4714  dbt2015-02-13d01t02.flac
     5:23.00       56977244 B   ---   --   ---xx   flac  0.4858  dbt2015-02-13d01t03.flac
     5:07.01       54157196 B   ---   --   ---xx   flac  0.4301  dbt2015-02-13d01t04.flac
     6:17.63       66651020 B   ---   --   ---xx   flac  0.4849  dbt2015-02-13d01t05.flac
     4:18.05       45523004 B   ---   --   ---xx   flac  0.4801  dbt2015-02-13d01t06.flac
     4:09.41       44020076 B   ---   --   ---xx   flac  0.5274  dbt2015-02-13d01t07.flac
    16:26.67      174088028 B   ---   --   ---xx   flac  0.4552  dbt2015-02-13d01t08.flac
     4:50.58       51292460 B   ---   --   ---xx   flac  0.5148  dbt2015-02-13d01t09.flac
     3:20.26       35341196 B   ---   --   ---xx   flac  0.5027  dbt2015-02-13d01t10.flac
     5:04.24       53682092 B   ---   --   ---xx   flac  0.4528  dbt2015-02-13d01t11.flac
     6:06.40       64656524 B   ---   --   ---xx   flac  0.4411  dbt2015-02-13d01t12.flac
     4:56.69       52376732 B   ---   --   ---xx   flac  0.5171  dbt2015-02-13d01t13.flac
     5:31.54       58515452 B   ---   --   ---xx   flac  0.4663  dbt2015-02-13d01t14.flac
     4:55.74       52212092 B   ---   --   ---xx   flac  0.3919  dbt2015-02-13d02t01.flac
     4:43.40       50015324 B   ---   --   ---xx   flac  0.4514  dbt2015-02-13d02t02.flac
     3:33.69       37735532 B   ---   --   ---xx   flac  0.4067  dbt2015-02-13d02t03.flac
     3:30.73       37215740 B   ---   --   ---xx   flac  0.3716  dbt2015-02-13d02t04.flac
     5:03.01       53451596 B   ---   --   ---xx   flac  0.4922  dbt2015-02-13d02t05.flac
     4:56.55       52343804 B   ---   --   ---xx   flac  0.4917  dbt2015-02-13d02t06.flac
     7:25.47       78608588 B   ---   --   ---xx   flac  0.4865  dbt2015-02-13d02t07.flac
     5:02.56       53404556 B   ---   --   ---xx   flac  0.3987  dbt2015-02-13d02t08.flac
     5:36.56       59402156 B   ---   --   ---xx   flac  0.5258  dbt2015-02-13d02t09.flac
     5:58.40       63245324 B   ---   --   ---xx   flac  0.4925  dbt2015-02-13d02t10.flac
     4:49.15       51014924 B   ---   --   ---xx   flac  0.5025  dbt2015-02-13d02t11.flac
     4:07.60       43711964 B   ---   --   ---xx   flac  0.3956  dbt2015-02-13d02t12.flac
     6:16.50       66444044 B   ---   --   ---xx   flac  0.4036  dbt2015-02-13d02t13.flac
     8:14.45       87247484 B   ---   --   ---xx   flac  0.5182  dbt2015-02-13d02t14.flac
   154:08.17     1631388416 B                            0.4658  (28 files)










Show Checksums
ffp
dbt2015-02-13d01t01.flac:42fc434350cb39b24adfe0fb06c936ed
dbt2015-02-13d01t02.flac:fe228410d7d3e9c437336a77cc08bde6
dbt2015-02-13d01t03.flac:5277fda50723658c256e50b3eaec0b23
dbt2015-02-13d01t04.flac:6c7ab65e0bc7807298f7b328e8a553fa
dbt2015-02-13d01t05.flac:c7bd52a0e7bde565b14a1273c4cd919c
dbt2015-02-13d01t06.flac:3d750c61410167031fb3a801f07a89cb
dbt2015-02-13d01t07.flac:6bff618447b8843b52d53b0c537312fd
dbt2015-02-13d01t08.flac:26b5f924b37e0e71f6e27ee0fb3f46c8
dbt2015-02-13d01t09.flac:eb74e3686d20af86e18c0dbff124cb38
dbt2015-02-13d01t10.flac:6277d0836216ea4bc0337a1ed6b9653e
dbt2015-02-13d01t11.flac:36a463f76a57050c1724bd67ed09e903
dbt2015-02-13d01t12.flac:78c3f360087535943f0819a80a2d2ce3
dbt2015-02-13d01t13.flac:7287201ba3819101c29569d220065079
dbt2015-02-13d01t14.flac:bac478931997383a9bf441c1b6a3645a
dbt2015-02-13d02t01.flac:6a5c3d88c5d35cbaef2ad51c2a727ebb
dbt2015-02-13d02t02.flac:b781d407368231abcd07ef11cf8fc271
dbt2015-02-13d02t03.flac:b424330bd3c56b0b7d1e867da3ad35b3
dbt2015-02-13d02t04.flac:02fe95d8849d46055d09e78113a9d279
dbt2015-02-13d02t05.flac:93de993fbbcb4199fa83b3209c05fd39
dbt2015-02-13d02t06.flac:8fa9a238216082df7e4f859b19685a45
dbt2015-02-13d02t07.flac:b64578e87d79b75a8fb19ffc190d2330
dbt2015-02-13d02t08.flac:ec23b01973446b2c499d17f7e35568eb
dbt2015-02-13d02t09.flac:7411bea3f6e0c1ebaf396476e1596364
dbt2015-02-13d02t10.flac:fd36d2b0aebb689563e74d5b2028551e
dbt2015-02-13d02t11.flac:28244683caf37309c744eab42c1429ec
dbt2015-02-13d02t12.flac:0577bc2fcc9d59620243f110231d28ad
dbt2015-02-13d02t13.flac:d1405aac7c6d0f709f56e426c1d78688
dbt2015-02-13d02t14.flac:75d424e234aa1260cf14fbd6f5596896

Comments
Add Comment
Date User Comment