Browse Collections Artists Sources   Search Dates

Add Show    List Management    Help


Grateful Dead 09/20/91
Boston Garden, Boston, MA
Comments Add Comment    Source Collectors    Add to Collection    Add to Want List    History
Source # 133731 Other Sources
Entered by Matt Vernon
Checksums ffp , flac-md5
Disc Counts 0 / 0
Media Size Compressed: 915.11 MB (959560943 bytes)
Uncompressed: 1.59 GB (1711057316 bytes)
Date Circulated
Date Added
07/11/2015
07/11/2015
Source Summary flac16; 2 Source Matrix by Dusborne; Soundboard (shnid:034799) SBD > DAT > CDR > WAV > SHNv3 and Audience (shnid:101438) Set 1 - Schoeps CMC34 (ORTF) > Oade Supply > Panasonic sv255; Set 2 - B&K 4011 110 degrees ORTF > Neumann BS 48i-2> Modified Sony TCD D-10 Pro 16 bit - 48kHz DAT Master > TASCAM DA-20 (SPDIF out) -> LynxTWO-B Audio Reference Interface (SPDIF in) -> Wavelab 6.0 
  Archive
Source Information - Download Text | Download Zip
Grateful Dead
September 20, 1991
Boston Garden
Boston, MA

2 Source Matrix

Soundboard (shnid:034799)
---------------------------------------------------------------------------------------------
gd91-09-20.034799.sbd.ladner.tetzeli.fix-5700.sbeok.t-flac16

source:  SBD > DAT > CDR > WAV > SHNv3
thanks to Andy 'Bear' G. for the seeds.
DAE (eac) > tracking (cdwave) > bourndary checking (shntool) > SHNv3 (mkwact) > FTP via Chris L.

Fix of shnid 5700

I made the transition between CDs 2 and 3 seamless.  Sector boundaries in CD 3 were fixed and
verified using shntool.  Overlapping fade tracks were added to the end of CD 2 and the beginning
of CD 3.  For seamless playback simply remove the fade tracks.

I also moved Boston from New York to Massachusetts.  Damn, I got a lot done in one day! ;-)

Bill Tetzeli ([email protected])
3/30/2006

Flac encoding notes:
All processing with Trader's Little Helper
Shn - st5 generated
Shn > Flac ( level 8 )
Flac - st5 generated and matched to Shn st5
A Mills 8/25/13

Audience (shnid:101438)
--------------------------------------------------------------------------------------------
gd91-09-20.fob.oneil.brennecke-young.gems.101438.flac16

http://db.etree.org/shn/101438

FOB Digital Audience Recording
The James Young & Clay Brennecke FOB Vault
[email protected]

Lineage: Set 2 Master DAT, Set 1 Clone of Master DAT

Recording Equipment:
Set 1 - Schoeps CMC34 (ORTF) > Oade Supply > Panasonic sv255
Set 2 - B&K 4011 110 degrees ORTF > Neumann BS 48i-2> Modified Sony TCD D-10 Pro

Recording Location: Set 1 FOB - Set 2 FOB Section BB Row 24 Seat 3

Recorded By: Set 1 by Dan Oneil and Set 2 by James Young and Clay Brennecke

Transfer: 16 bit - 48kHz DAT Master > TASCAM DA-20 (SPDIF out) ->
LynxTWO-B Audio Reference Interface (SPDIF in) ->
Wavelab 6.0 by Todd Evans ([email protected]) October 30, 2008

Editing and Mastering: Jamie Waddell ([email protected]) on the GEMS Edit Station.
Weiss Saracon for 16 BIT - 44.1kHz SRC and POWR-3 Dither

Encoding by Jamie Waddell - Flac Frontend level 8

Meta-Data Tagging - Todd Evans with Tag & Rename

Art: Gyro

A **GEMS** Production  www.shnflac.net
-----------------------------------------------------------------------------------------------

Matrix Notes
---There is some PA crackle during Touch Of Grey, Along The Watchtower and Morning Dew.
---I successfully eradicated the annoying whistler during Bird Song.

---Thank you Bill Tetzeli  for your work on the SBD.
---Thank you Dan O'Neil for recording the show.
---Thank you James Young and Clay Brennecke for recording the show.
---Thank you Todd Evans for the AUD transfer.
---Thank you Jamie Waddell for your work on the AUD.
---Thank you Dazed64 for your work on the AUD.
---Thank you to the GEMS audio team.
---Thank you XJ32 for the art work.
---Thank you Germain for your advice, encouragement, guidance and seeding.

Matrix by dusborne

04-27-2015

[email protected]
-------------------------------------------------------------------------------------------

Set 1
101 - gd91-09-20s1t01 - Tuning
102 - gd91-09-20s1t02 - Touch Of Grey
103 - gd91-09-20s1t03 - Little Red Rooster
104 - gd91-09-20s1t04 - Jack-A-Roe
105 - gd91-09-20s1t05 - Black-Throated Wind
106 - gd91-09-20s1t06 - Stagger Lee
107 - gd91-09-20s1t07 - When I Paint My Masterpiece
108 - gd91-09-20s1t08 - Bird Song

Set 2
201 - gd91-09-20s2t01 - Tuning
202 - gd91-09-20s2t02 - Help On The Way ->
203 - gd91-09-20s2t03 - Slipknot! ->
204 - gd91-09-20s2t04 - Fire On The Mountain
205 - gd91-09-20s2t05 - Estimated Prophet ->
206 - gd91-09-20s2t06 - Truckin' ->
207 - gd91-09-20s2t07 - Drums ->
208 - gd91-09-20s2t08 - Space ->
209 - gd91-09-20s2t09 - All Along The Watchtower ->
210 - gd91-09-20s2t10 - Morning Dew

Encore
211 - gd91-09-20s2t11 - Turn On Your Love Light
-------------------------------------------------------------------------------------------------------

Tagging notes:
Show information is embedded within the header
of each flac file. It will display on any player
capable of directly playing flac files.
If converted to wav during processing, all tags
will be stripped, however audio data will remain
unaffected. If you must transcode to a lossy format,
do so directly Flac > Lossy.
Use st5 to validate audio integrity.
Md5 values will change if tagging is altered.
Dave Usborne 04-27-2015
---------------------------------------------------------------------------------------------------------
length     expanded size    cdr  WAVE problems  fmt   ratio  filename
     1:09.24       12228092 B   ---   --   ---xx   flac  0.4554  gd91-09-20s1t01.flac
     6:54.63       73177820 B   ---   --   ---xx   flac  0.5796  gd91-09-20s1t02.flac
    10:11.36      107865116 B   ---   --   ---xx   flac  0.5401  gd91-09-20s1t03.flac
     5:46.03       61041500 B   ---   --   ---xx   flac  0.5590  gd91-09-20s1t04.flac
     8:03.47       85311788 B   ---   --   ---xx   flac  0.5616  gd91-09-20s1t05.flac
     7:19.26       77500796 B   ---   --   ---xx   flac  0.6071  gd91-09-20s1t06.flac
     5:41.15       60187724 B   ---   --   ---xx   flac  0.5659  gd91-09-20s1t07.flac
    15:30.06      164066156 B   ---   --   ---xx   flac  0.5932  gd91-09-20s1t08.flac
     2:12.37       23371868 B   ---   --   ---xx   flac  0.4518  gd91-09-20s2t01.flac
     4:00.62       42481868 B   ---   --   ---xx   flac  0.6078  gd91-09-20s2t02.flac
     6:04.50       64327244 B   ---   --   ---xx   flac  0.5942  gd91-09-20s2t03.flac
    13:03.08      138140060 B   ---   --   ---xx   flac  0.5815  gd91-09-20s2t04.flac
    12:15.45      129759884 B   ---   --   ---xx   flac  0.5813  gd91-09-20s2t05.flac
    15:03.45      159395084 B   ---   --   ---xx   flac  0.6014  gd91-09-20s2t06.flac
     8:13.31       87038156 B   ---   --   ---xx   flac  0.5098  gd91-09-20s2t07.flac
    13:52.24      146821292 B   ---   --   ---xx   flac  0.4390  gd91-09-20s2t08.flac
     6:04.42       64308428 B   ---   --   ---xx   flac  0.5972  gd91-09-20s2t09.flac
    14:00.22      148227788 B   ---   --   ---xx   flac  0.5465  gd91-09-20s2t10.flac
     6:13.04       65806652 B   ---   --   ---xx   flac  0.5823  gd91-09-20s2t11.flac
   161:39.65     1711057316 B                            0.5608  (19 files)


Show Checksums
ffp
gd91-09-20s1t01.flac:a3649db68f34813bbce37c695425697f
gd91-09-20s1t02.flac:13979c9f1a188551a8b348f58ba4a921
gd91-09-20s1t03.flac:afe0d3e455f4dcc1a0c08f6713cf8ded
gd91-09-20s1t04.flac:fc74e30f9be003a3b9e6ab1214c5b568
gd91-09-20s1t05.flac:71d7f6c99c2694b9ca9608e7e94bc18a
gd91-09-20s1t06.flac:03b21be4dc43f63cef5151c02ada740e
gd91-09-20s1t07.flac:4027aa2d01e7da8a24ea5be612a7f46e
gd91-09-20s1t08.flac:9791e380de187e4a68e3fd2b7428f551
gd91-09-20s2t01.flac:c91cce70ffbb2a94a0d895fcf1e3f1e7
gd91-09-20s2t02.flac:1bb3b2b35b92ac36acf361b0b04c6d4c
gd91-09-20s2t03.flac:a4bd9db440fc0961e46a7641847db91a
gd91-09-20s2t04.flac:45d55990d1dd415d5c3d48efa16ddf2f
gd91-09-20s2t05.flac:00734c89cdb3c124a59dd81fdfda3be9
gd91-09-20s2t06.flac:b70dfa1b8711e7b974d8fa90aa49d40c
gd91-09-20s2t07.flac:9195ed2858447056caa3f50cfb1e8916
gd91-09-20s2t08.flac:1a18d8254183fbc15c26e03ab4dbb8ed
gd91-09-20s2t09.flac:620841c2abfb504ebd5bb30285a394b9
gd91-09-20s2t10.flac:08aae232f02fcf3b6ee9b4e67750bbf3
gd91-09-20s2t11.flac:98991ab76d6a4f5f84ab08f8a947a89b
flac-md5
a3f380d5c79f40f64a68a1ecda61cae2 *gd91-09-20s1t01.flac
4b80736ebc230ed2912365aa3f581cbd *gd91-09-20s1t02.flac
2715ee62a4b8603111a44d9b6aa049a5 *gd91-09-20s1t03.flac
ef04cdb5be71fe343ecd74301b24f86e *gd91-09-20s1t04.flac
56505c80313d5bfebfb905aab2e72c0d *gd91-09-20s1t05.flac
996fcac645031c532371b32ecd70d85b *gd91-09-20s1t06.flac
9ac36d1e267de7965a7c33d9c06b5233 *gd91-09-20s1t07.flac
522557ff3dca5d37892634f420174786 *gd91-09-20s1t08.flac
9c07b34efad9382dcb420bd70b5ecaa9 *gd91-09-20s2t01.flac
abafc45edba806aa1c99193ab2b201e2 *gd91-09-20s2t02.flac
166af5b57e9d0c0d3b9c151977cb2d8e *gd91-09-20s2t03.flac
efee8939c7322bcef9aa3f79584ac3c9 *gd91-09-20s2t04.flac
5a1342dc217dca48b022a873abe00bd2 *gd91-09-20s2t05.flac
b4f097008ec1fbdaa99c2e2647a49034 *gd91-09-20s2t06.flac
97aea3a1a51e5ecdf6de66a32475b92d *gd91-09-20s2t07.flac
03f37c30d8e09ca64348fddc569534b9 *gd91-09-20s2t08.flac
2cb4a7296e4049a37c70182882a2de10 *gd91-09-20s2t09.flac
099fca1b5f03dff2b7da35a623a16be8 *gd91-09-20s2t10.flac
478264c7453d16ddbb5d9dcadae3ca49 *gd91-09-20s2t11.flac

Comments
Add Comment
Other Sources (comments)
SBD > DAT > CDR > WAV >... (0) Recorded with nakamichi 300... (0) Unknown SBD source. Hosted... (1) SBD > DAT > CDR > WAV > SHN... (0) flac16; Source: aud... (1) flac16; Lineage: Set... (0) flac16; matrix 50%... (0) flac16; Matrix 50%... (1) flac24; Master... (0) flac16; Master... (0) flac16/48kHz; DSBD... (0) flac16/48kHz;... (0)
Date User Comment