Browse Collections Artists Sources   Search Dates

Add Show    List Management    Help


Grateful Dead 07/07/81
Kansas City Municipal Auditorium Arena, Kansas City, MO
Comments Add Comment    Source Collectors    Add to Collection    Add to Want List    History
Source # 134089 Other Sources
Entered by Matt Vernon
Checksums ffp , flac-md5
Disc Counts 0 / 0
Media Size Compressed: 1.9 GB (2038489088 bytes)
Uncompressed: 2.6 GB (2790048746 bytes)
Date Circulated
Date Added
08/26/2015
08/26/2015
Source Summary flac24; AUD: Nakamichi CM300/CP4 shotguns > Sony TC-D5 > Maxell XLII (S1) and Hitachi ME-Metal (S2). Recording by Brian Schley. Transfer: MAC > Nakamichi CR-5A > Edirol FA-66 > Wavelab 2448 > CD-Wave (24bit output) > TLH > FLAC 2448 tagged. Transferred by Andrew F. 08/2015 
  Archive
Source Information - Download Text | Download Zip
GRATEFUL DEAD
Municipal Auditorium Arena
Kansas City MO
07-07-1981

24bit/48kHz file-set

s1t01 Minglewood Blues >
s1t02 Bertha >
s1t03 Dancin' in the Streets
s1t04 Big Railroad Blues >
s1t05 El Paso
s1t06 To Lay Me Down
s1t07 Lazy Lightnin' > Supplication
s1t08 Birdsong >
s1t09 Looks Like Rain >
s1t10 Deal

s2t01 Women Are Smarter
s2t02 Candyman
s2t03 Estimated Prophet >
s2t04 Eyes of the World >
s2t05 Drums >
s2t06 Space >
s2t07 Truckin' >
s2t08 Goin' Down the Road >
s2t09 Black Peter >
s2t10 I Need a Miracle >
s2t11 Good Lovin'
s2t12 Encore: Don't Ease Me In

AUD: Nakamichi CM300/CP4 shotguns > Sony TC-D5 > Maxell XLII (S1)
and Hitachi ME-Metal (S2). Recording by Brian Schley.

Transfer: MAC > Nakamichi CR-5A > Edirol FA-66 > Wavelab 2448 >
CD-Wave (24bit output) > TLH > FLAC 2448 tagged. Transferred by
Andrew F. 08/2015

Note: Start of Lazy Lightnin' slightly clipped. ID-13962 patches;
first 2 seconds of Bob's announcement after Dancin', Lazy Lightnin'
3:57 > 4:06, Space 0:40 > 1:04, and all of Don't Ease Me encore.
Thanks to Jon Pasternak for organizing this project!

    length     expanded size    cdr  WAVE problems  fmt   ratio  filename
     7:26.027     128455724 B   cxx   --   ---xx   flac  0.7374  gd1981-07-07s1t01.flac
     5:36.613      96944684 B   cxx   --   ---xx   flac  0.7429  gd1981-07-07s1t02.flac
     9:34.613     165488684 B   cxx   --   ---xx   flac  0.7365  gd1981-07-07s1t03.flac
     4:23.093      75770924 B   cxx   --   ---xx   flac  0.7483  gd1981-07-07s1t04.flac
     5:23.373      93131564 B   cxx   --   ---xx   flac  0.7318  gd1981-07-07s1t05.flac
     9:19.080     161015084 B   cxx   --   ---xx   flac  0.7181  gd1981-07-07s1t06.flac
    10:21.053     178863404 B   cxx   --   ---xx   flac  0.7416  gd1981-07-07s1t07.flac
     9:14.040     159563564 B   cxx   --   ---xx   flac  0.7295  gd1981-07-07s1t08.flac
     8:24.080     145175084 B   cxx   --   ---xx   flac  0.7278  gd1981-07-07s1t09.flac
     6:37.721     114543692 B   cxx   --   ---xx   flac  0.7462  gd1981-07-07s1t10.flac
     5:48.613     100400684 B   cxx   --   ---xx   flac  0.7314  gd1981-07-07s2t01.flac
     7:04.467     122246444 B   cxx   --   ---xx   flac  0.7230  gd1981-07-07s2t02.flac
    11:14.200     194169644 B   cxx   --   ---xx   flac  0.7323  gd1981-07-07s2t03.flac
    10:16.893     177665324 B   cxx   --   ---xx   flac  0.7362  gd1981-07-07s2t04.flac
     6:43.293     116148524 B   cxx   --   ---xx   flac  0.7038  gd1981-07-07s2t05.flac
     8:01.947     138800684 B   cxx   --   ---xx   flac  0.6929  gd1981-07-07s2t06.flac
     6:22.947     110288684 B   cxx   --   ---xx   flac  0.7364  gd1981-07-07s2t07.flac
     6:27.827     111694124 B   cxx   --   ---xx   flac  0.7423  gd1981-07-07s2t08.flac
     8:38.160     149230124 B   cxx   --   ---xx   flac  0.7153  gd1981-07-07s2t09.flac
     3:48.493      65806124 B   cxx   --   ---xx   flac  0.7505  gd1981-07-07s2t10.flac
     7:14.493     125134124 B   cxx   --   ---xx   flac  0.7483  gd1981-07-07s2t11.flac
     3:26.638      59511854 B   cxx   --   ---xx   flac  0.7144  gd1981-07-07s2t12.flac
   161:27.666    2790048746 B                            0.7306  (22 files)

No errors occured.



Show Checksums
ffp
gd1981-07-07s1t01.flac:dd82ca02cc0af93d2fd981224a3ed228
gd1981-07-07s1t02.flac:0b86f6726b27ad2256c3b3c479536446
gd1981-07-07s1t03.flac:2151bfa8e50441249e0ecd4f764d5c87
gd1981-07-07s1t04.flac:810dc214830af519711599d8c1dafd5d
gd1981-07-07s1t05.flac:1f96f69859c615e30953198943eed28d
gd1981-07-07s1t06.flac:b34868ae74e047ed3f32715670a53c37
gd1981-07-07s1t07.flac:b81be60442db75f67d5410cda5c3745c
gd1981-07-07s1t08.flac:a19fbd97db81ec3b83c26b47df62a99a
gd1981-07-07s1t09.flac:25f9dcc0932abc94703880664cc53a01
gd1981-07-07s1t10.flac:ddca3ace7d732b8d870831c131086630
gd1981-07-07s2t01.flac:e8e8c42eb4af3d6cc017d56c9ffbac12
gd1981-07-07s2t02.flac:77f36f22dd39d17a86649aa7e0d92e04
gd1981-07-07s2t03.flac:0db3567a662b443b8d230cdec74f8c5b
gd1981-07-07s2t04.flac:6923cab4acf31a4d55ce5a191a3ec548
gd1981-07-07s2t05.flac:b73b2aa365df6793564fa2dc94112b7a
gd1981-07-07s2t06.flac:d3f7d20e6aab3edc3b562f2ffec15a68
gd1981-07-07s2t07.flac:2f6d9798ac1552ea58d75934e2807a5e
gd1981-07-07s2t08.flac:aeb4651c312c0f57e085df4e6e3fa3d1
gd1981-07-07s2t09.flac:28b34b3a9e94bdd8037d36a783cde86c
gd1981-07-07s2t10.flac:0ba49d76dd05a1d0951fe82b9bc8809e
gd1981-07-07s2t11.flac:064fa7a51051905ddc8239810061e8b5
gd1981-07-07s2t12.flac:f9b420ca8990d615faf1059043ae1c57
flac-md5
511eca6d0158d9aab52a71f070c33080 *gd1981-07-07s1t01.flac
c72beb733dd23c3536c4f7d1482c5c8f *gd1981-07-07s1t02.flac
d976a00dc4734d9e51892fd8d28b24de *gd1981-07-07s1t03.flac
c8fa201181e2c736594c5308bc70ae3d *gd1981-07-07s1t04.flac
5c508e73084217e09a14d6e45678d431 *gd1981-07-07s1t05.flac
f4dc4bf759b20348507259627ee5b21b *gd1981-07-07s1t06.flac
d80a931961bc7ef333d298d5290a94d7 *gd1981-07-07s1t07.flac
39d9d71ed728cb378df6624cb0d1c694 *gd1981-07-07s1t08.flac
3b61c8aa7309ff682a705912b072a85a *gd1981-07-07s1t09.flac
8fc10b4d0c5d51fbf5aef7d8d5a65fdc *gd1981-07-07s1t10.flac
4756aa58271136a5c2e22af345d8a32a *gd1981-07-07s2t01.flac
54667faee46aee905cf41807bf10af5b *gd1981-07-07s2t02.flac
8732c15bead679b68b2f69738640cc10 *gd1981-07-07s2t03.flac
e40e05ad445c27012393745518f493a8 *gd1981-07-07s2t04.flac
b3aa1b2ef2ac2962b89ebd54624d130b *gd1981-07-07s2t05.flac
21ea793c200a872b58daf37591954586 *gd1981-07-07s2t06.flac
8007a53f5811d38cda937c4ea7421777 *gd1981-07-07s2t07.flac
e0f9655a4d2f2b90b918be6ba29850eb *gd1981-07-07s2t08.flac
70b977dbf4346c22d2aa7cfee738a3e5 *gd1981-07-07s2t09.flac
0838583ffb744c6c727c7ed8ecae4e75 *gd1981-07-07s2t10.flac
488e52da8e6d6677454440db0edae45e *gd1981-07-07s2t11.flac
51e6918e78b60d5ac7d2bcca5de401d2 *gd1981-07-07s2t12.flac

Comments
Add Comment
Other Sources (comments)
1st Set Only; SBD> Cm>... (0) Complete; Aud (Neumann... (0) flac16; SBD ->... (0) flac16; Recording... (0) flac16; Matrix 60%... (0) flac16; AUD:... (0)
Date User Comment