Browse Collections Artists Sources   Search Dates

Add Show    List Management    Help


Grateful Dead 07/07/81
Kansas City Municipal Auditorium Arena, Kansas City, MO
Comments Add Comment    Source Collectors    Add to Collection    Add to Want List    History
Source # 134090 Other Sources
Entered by Matt Vernon
Checksums ffp , flac-md5
Disc Counts 0 / 0
Media Size Compressed: 990.27 MB (1038368768 bytes)
Uncompressed: 1.59 GB (1708907720 bytes)
Date Circulated
Date Added
08/26/2015
08/26/2015
Source Summary flac16; AUD: Nakamichi CM300/CP4 shotguns > Sony TC-D5 > Maxell XLII (S1) and Hitachi ME-Metal (S2). Recording by Brian Schley. Transfer: MAC > Nakamichi CR-5A > Edirol FA-66 > Wavelab 2448 > CD-Wave (24bit output) > R8Brain > TLH > FLAC 1644 tagged. Transferred by Andrew F. 08/2015 
  Archive
Source Information - Download Text | Download Zip
GRATEFUL DEAD
Municipal Auditorium Arena
Kansas City MO
07-07-1981

16bit/44.1kHz file-set

s1t01 Minglewood Blues >
s1t02 Bertha >
s1t03 Dancin' in the Streets
s1t04 Big Railroad Blues >
s1t05 El Paso
s1t06 To Lay Me Down
s1t07 Lazy Lightnin' > Supplication
s1t08 Birdsong >
s1t09 Looks Like Rain >
s1t10 Deal

s2t01 Women Are Smarter
s2t02 Candyman
s2t03 Estimated Prophet >
s2t04 Eyes of the World >
s2t05 Drums >
s2t06 Space >
s2t07 Truckin' >
s2t08 Goin' Down the Road >
s2t09 Black Peter >
s2t10 I Need a Miracle >
s2t11 Good Lovin'
s2t12 Encore: Don't Ease Me In

AUD: Nakamichi CM300/CP4 shotguns > Sony TC-D5 > Maxell XLII (S1)
and Hitachi ME-Metal (S2). Recording by Brian Schley.

Transfer: MAC > Nakamichi CR-5A > Edirol FA-66 > Wavelab 2448 >
CD-Wave (24bit output) > R8Brain > TLH > FLAC 1644 tagged.
Transferred by Andrew F. 08/2015

Note: Start of Lazy Lightnin' slightly clipped. ID-13962 patches;
first 2 seconds of Bob's announcement after Dancin', Lazy Lightnin'
3:57 > 4:06, Space 0:40 > 1:04, and all of Don't Ease Me encore.
Thanks to Jon Pasternak for organizing this project!

    length     expanded size    cdr  WAVE problems  fmt   ratio  filename
     7:26.02       78679148 B   ---   --   ---xx   flac  0.6192  gd1981-07-07s1t01.flac
     5:36.46       59378636 B   ---   --   ---xx   flac  0.6271  gd1981-07-07s1t02.flac
     9:34.46      101361836 B   ---   --   ---xx   flac  0.6166  gd1981-07-07s1t03.flac
     4:23.07       46409708 B   ---   --   ---xx   flac  0.6354  gd1981-07-07s1t04.flac
     5:23.28       57043100 B   ---   --   ---xx   flac  0.6092  gd1981-07-07s1t05.flac
     9:19.06       98621756 B   ---   --   ---xx   flac  0.5868  gd1981-07-07s1t06.flac
    10:21.04      109553852 B   ---   --   ---xx   flac  0.6255  gd1981-07-07s1t07.flac
     9:14.03       97732700 B   ---   --   ---xx   flac  0.6058  gd1981-07-07s1t08.flac
     8:24.06       88919756 B   ---   --   ---xx   flac  0.6032  gd1981-07-07s1t09.flac
     6:37.55       70160204 B   ---   --   ---xx   flac  0.6336  gd1981-07-07s1t10.flac
     5:48.46       61495436 B   ---   --   ---xx   flac  0.6095  gd1981-07-07s2t01.flac
     7:04.35       74875964 B   ---   --   ---xx   flac  0.5945  gd1981-07-07s2t02.flac
    11:14.15      118928924 B   ---   --   ---xx   flac  0.6099  gd1981-07-07s2t03.flac
    10:16.67      108820028 B   ---   --   ---xx   flac  0.6161  gd1981-07-07s2t04.flac
     6:43.22       71140988 B   ---   --   ---xx   flac  0.5638  gd1981-07-07s2t05.flac
     8:01.71       85015436 B   ---   --   ---xx   flac  0.5465  gd1981-07-07s2t06.flac
     6:22.71       67551836 B   ---   --   ---xx   flac  0.6170  gd1981-07-07s2t07.flac
     6:27.62       68412668 B   ---   --   ---xx   flac  0.6262  gd1981-07-07s2t08.flac
     8:38.12       91403468 B   ---   --   ---xx   flac  0.5823  gd1981-07-07s2t09.flac
     3:48.37       40306268 B   ---   --   ---xx   flac  0.6394  gd1981-07-07s2t10.flac
     7:14.37       76644668 B   ---   --   ---xx   flac  0.6358  gd1981-07-07s2t11.flac
     3:26.48       36451340 B   ---   --   ---xx   flac  0.5911  gd1981-07-07s2t12.flac
   161:27.51     1708907720 B                            0.6076  (22 files)

No errors occured.



Show Checksums
ffp
gd1981-07-07s1t01.flac:fca39a4b29c8b6801aabe67e231b1603
gd1981-07-07s1t02.flac:d7795ea8061ca304c9e7c34b7dde3355
gd1981-07-07s1t03.flac:6aa40ec33cdf52ddfb73e74e6c7c0e5c
gd1981-07-07s1t04.flac:e963e3dc8224a3d961876117f3bf2c7d
gd1981-07-07s1t05.flac:76deaf7f694a5e09e4b479c3ab620f43
gd1981-07-07s1t06.flac:6988a6822b0747fe2c0d365905d971bb
gd1981-07-07s1t07.flac:b68dcdadb8f8146b41fe74985914ef7f
gd1981-07-07s1t08.flac:212cec93d3bffd8797592d37bf693dc7
gd1981-07-07s1t09.flac:2604484718bfbc956b8e646ecf43d48a
gd1981-07-07s1t10.flac:d631ebddd62be745f09831a6b87c94ea
gd1981-07-07s2t01.flac:15a547c5d06c14b8bfe6fcfd47ed6f0f
gd1981-07-07s2t02.flac:3d747b5c74bba9d896cf3354c9e0d5a2
gd1981-07-07s2t03.flac:11c47420741212b0c9beb796e549f808
gd1981-07-07s2t04.flac:1be923b6bd9abc4b0f5695ed2c2ed8aa
gd1981-07-07s2t05.flac:6ace723f2231df85929dff9f8a6360e3
gd1981-07-07s2t06.flac:c3d21f0fabbd1583cbbf7c0bf71f0574
gd1981-07-07s2t07.flac:8b4c2b2b2573ce006c6683b30e19ba25
gd1981-07-07s2t08.flac:ab48c54bf1373709759840a9b1806648
gd1981-07-07s2t09.flac:bdf0f0f85a32e843e548bc6234a8c0b2
gd1981-07-07s2t10.flac:f5d5b7375bc8a517d887b4298b5473af
gd1981-07-07s2t11.flac:f9914d8fe803ffbe0fa047d44db5d0ab
gd1981-07-07s2t12.flac:fcc09e4eed8d34304f5cf9e7eaafb46b
flac-md5
f8e8c0a6a0634a673f8a780c65484f40 *gd1981-07-07s1t01.flac
225a1c09349dc8e0c95a7feea45c9e18 *gd1981-07-07s1t02.flac
54a27198a19e0eba42aaee203e8ba2d8 *gd1981-07-07s1t03.flac
996b3fb4ee98561c1d3418946aef1fc0 *gd1981-07-07s1t04.flac
15dd7e71cc77bcb2f76ffdac84926866 *gd1981-07-07s1t05.flac
844bafa25f52eabec6173c04a3912d44 *gd1981-07-07s1t06.flac
f9b9ecc31516b48ffaa59f12d5d73134 *gd1981-07-07s1t07.flac
f73cee594b71527aee0b5e5533e6ef2b *gd1981-07-07s1t08.flac
ae0258d8613816e845bcd474d3242066 *gd1981-07-07s1t09.flac
f018eeb94ed8bab659673fb5f9d07b84 *gd1981-07-07s1t10.flac
459c792ee04b30991525064906d8126a *gd1981-07-07s2t01.flac
47eed1d6a0395ccc5298336d68809078 *gd1981-07-07s2t02.flac
aac3600bb7b65dd6aaa3fc01a3996502 *gd1981-07-07s2t03.flac
395deda8445f9a5410fd5596f4522f55 *gd1981-07-07s2t04.flac
499c438b3a4ee77f3aec8593c691a6e7 *gd1981-07-07s2t05.flac
4ca6f7d9d8082ef0071244c5bcbbbdf6 *gd1981-07-07s2t06.flac
82cd9c07a9a10c68cf7e76089250b0ec *gd1981-07-07s2t07.flac
84501cb7bd7c833b18f8acbc52db71e3 *gd1981-07-07s2t08.flac
5e17de0a45f3fe8174ff78cf05fb88c8 *gd1981-07-07s2t09.flac
bba1523a08c25a5b65e3ff3548943fb2 *gd1981-07-07s2t10.flac
71098083650ad4b7aa24d1500d935a2a *gd1981-07-07s2t11.flac
9a78982a3550c3eed2b897287f7f5ca5 *gd1981-07-07s2t12.flac

Comments
Add Comment
Other Sources (comments)
1st Set Only; SBD> Cm>... (0) Complete; Aud (Neumann... (0) flac16; SBD ->... (0) flac16; Recording... (0) flac16; Matrix 60%... (0) flac24; AUD:... (0)
Date User Comment