Browse Collections Artists Sources   Search Dates

Add Show    List Management    Help


Grateful Dead 07/08/81
Kiel Auditorium, St. Louis, MO
Comments Add Comment    Source Collectors    Add to Collection    Add to Want List    History
Source # 134091 Other Sources
Entered by Matt Vernon
Checksums flac-md5 , ffp
Disc Counts 0 / 0
Media Size Compressed: 1.95 GB (2093388229 bytes)
Uncompressed: 2.68 GB (2880145574 bytes)
Date Circulated
Date Added
08/26/2015
08/26/2015
Source Summary flac24; AUD: Nakamichi CM300's > lead deck > Sony TC-D5 > Maxell XLII's. Recording by Jon Bernstein. Transfer: MAC > Nakamichi CR-5A > Edirol FA-66 > Wavelab 2448 > CD-Wave (24bit output) > TLH > FLAC 2448 tagged. Transferred by Andrew F. 08/2015 
  Archive
Source Information - Download Text | Download Zip
GRATEFUL DEAD
Kiel Auditorium
St Louis MO
07-08-1981

24bit/48kHz file-set

s1t01 crowd
s1t02 Mississippi Half Step >
s1t03 Feel Like a Stranger
s1t04 Peggy-O >
s1t05 Little Red Rooster
s1t06 Althea
s1t07 Me & My Uncle >
s1t08 Big River
s1t09 Don't Ease Me In >
s1t10 Minglewood Blues
s1t11 China Cat Sunflower >
s1t12 I Know You Rider

s2t01 crowd
s2t02 Scarlet Begonias >
s2t03 Fire on the Mountain
s2t04 Lost Sailor >
s2t05 Saint of Circumstance >
s2t06 Franklin's Tower >
s2t07 Jam >
s2t08 Drums >
s2t09 Space >
s2t10 Not Fade Away >
s2t11 Wharf Rat >
s2t12 Sugar Magnolia
s2t13 Encore: U.S. Blues

AUD: Nakamichi CM300's > lead deck > Sony TC-D5 > Maxell XLII's.
Recording by Jon Bernstein.

Transfer: MAC > Nakamichi CR-5A > Edirol FA-66 > Wavelab 2448 >
CD-Wave (24bit output) > TLH > FLAC 2448 tagged. Transferred by
Andrew F. 08/2015

Note: Mics are thought to have been Nak 300's, although it may be
mis-remembered; in any event the recording is great, thanks Jon!
Big explosions during Don't Ease, those were re-transferred at 10db
lower and patched back into the main source to make it less jarring.
Patches from ID-13301: crowd after FOTM 11:11 > Lost Sailor 0:05,
Jam 1:43 > 1:54, and Drums 0:15 > Space 0:11 (7:43).

    length     expanded size    cdr  WAVE problems  fmt   ratio  filename
     0:39.147      11274284 B   cxx   --   ---xx   flac  0.6886  gd1981-07-08s1t01.flac
     8:01.440     138654764 B   cxx   --   ---xx   flac  0.7289  gd1981-07-08s1t02.flac
     8:19.773     143934764 B   cxx   --   ---xx   flac  0.7248  gd1981-07-08s1t03.flac
     6:53.027     118951724 B   cxx   --   ---xx   flac  0.7169  gd1981-07-08s1t04.flac
     8:38.760     149402924 B   cxx   --   ---xx   flac  0.7256  gd1981-07-08s1t05.flac
     8:35.933     148588844 B   cxx   --   ---xx   flac  0.7258  gd1981-07-08s1t06.flac
     3:01.893      52385324 B   cxx   --   ---xx   flac  0.7397  gd1981-07-08s1t07.flac
     6:20.613     109616684 B   cxx   --   ---xx   flac  0.7427  gd1981-07-08s1t08.flac
     3:17.853      56981804 B   cxx   --   ---xx   flac  0.7464  gd1981-07-08s1t09.flac
     7:30.080     129623084 B   cxx   --   ---xx   flac  0.7401  gd1981-07-08s1t10.flac
     6:22.147     110058284 B   cxx   --   ---xx   flac  0.7378  gd1981-07-08s1t11.flac
     5:25.224      93664526 B   cxx   --   ---xx   flac  0.7387  gd1981-07-08s1t12.flac
     1:03.867      18393644 B   cxx   --   ---xx   flac  0.6830  gd1981-07-08s2t01.flac
     9:18.720     160911404 B   cxx   --   ---xx   flac  0.7377  gd1981-07-08s2t02.flac
    11:16.800     194918444 B   cxx   --   ---xx   flac  0.7382  gd1981-07-08s2t03.flac
     7:05.160     122446124 B   cxx   --   ---xx   flac  0.7167  gd1981-07-08s2t04.flac
     6:55.173     119569964 B   cxx   --   ---xx   flac  0.7398  gd1981-07-08s2t05.flac
     9:50.667     170112044 B   cxx   --   ---xx   flac  0.7346  gd1981-07-08s2t06.flac
     4:50.933      83788844 B   cxx   --   ---xx   flac  0.6897  gd1981-07-08s2t07.flac
     7:47.293     134580524 B   cxx   --   ---xx   flac  0.6919  gd1981-07-08s2t08.flac
     3:56.427      68090924 B   cxx   --   ---xx   flac  0.6828  gd1981-07-08s2t09.flac
     6:56.067     119827244 B   cxx   --   ---xx   flac  0.7244  gd1981-07-08s2t10.flac
     9:19.147     161034284 B   cxx   --   ---xx   flac  0.7108  gd1981-07-08s2t11.flac
     9:38.413     166583084 B   cxx   --   ---xx   flac  0.7422  gd1981-07-08s2t12.flac
     5:35.944      96752036 B   cxx   --   ---xx   flac  0.7343  gd1981-07-08s2t13.flac
   166:40.502    2880145574 B                            0.7268  (25 files)

No errors occured.



Show Checksums
flac-md5
fd3ac0edc06c174714ecbfbde81c8ff5 *gd1981-07-08s1t01.flac
28dca29ddffa07687fe78d110e9270fc *gd1981-07-08s1t02.flac
e8152a707740574f606c971fd79d79f5 *gd1981-07-08s1t03.flac
e419f4be0f722aff991f5bd297bdf8d4 *gd1981-07-08s1t04.flac
4c1b6392e3adc17c38c5034c8cfa3a49 *gd1981-07-08s1t05.flac
68c8d9991b46203e8b2bbc9ebefdcbc4 *gd1981-07-08s1t06.flac
94bb47623ae217eb4d9015fa463e6762 *gd1981-07-08s1t07.flac
d0f51903c554dbb2e6de1b140329d629 *gd1981-07-08s1t08.flac
c79a9b5f3c089f64290593116fa1b88e *gd1981-07-08s1t09.flac
f39b83d046efe6b80fa54d438def733c *gd1981-07-08s1t10.flac
e783c2790e74c063e9c951b27e0b6d03 *gd1981-07-08s1t11.flac
607e83874bed2eefdb323a52711a43f6 *gd1981-07-08s1t12.flac
c0816838ae88200f98b716c553f46634 *gd1981-07-08s2t01.flac
e6a8f9d6955ee6aa10dc6917363aebc6 *gd1981-07-08s2t02.flac
9e61e7b7a4bd43fcc02716a6b683baaa *gd1981-07-08s2t03.flac
5ff7de4715ad75aec7cf6e51c3aa1a6f *gd1981-07-08s2t04.flac
d64144339878cd7405cc42c4cf135d33 *gd1981-07-08s2t05.flac
35e668bdfb6f950e44a770b76feed9bc *gd1981-07-08s2t06.flac
1680db484176b712c57485a5c8d8103a *gd1981-07-08s2t07.flac
1f5ad45abdc79e1340f3fea98d7b7d13 *gd1981-07-08s2t08.flac
60ef39e8ef8d50a7fedfeb79c1c9052b *gd1981-07-08s2t09.flac
3bcc4534e3d20ecb00e84b6402d8eecb *gd1981-07-08s2t10.flac
32189789709e21f533dd01ce455b97c3 *gd1981-07-08s2t11.flac
5d659b4decfd05056b016ee85b20bce5 *gd1981-07-08s2t12.flac
ff7ca92dbec1350f3845884cdbaa8d90 *gd1981-07-08s2t13.flac
ffp
gd1981-07-08s1t01.flac:dc908957576d7fe34d9b09007561481f
gd1981-07-08s1t02.flac:cb4cf32a86ba557ea29f7ef6a25bd309
gd1981-07-08s1t03.flac:75819e2250d6d81600ff5d4464400e82
gd1981-07-08s1t04.flac:df1247221260b01c26ef6b1fa96a4808
gd1981-07-08s1t05.flac:c6405425c5b73c4da3b53a4c7be27f76
gd1981-07-08s1t06.flac:bb6d63c5061237ccfcc89901f72f458a
gd1981-07-08s1t07.flac:52559ee65797f64feb15e03aa789ceb3
gd1981-07-08s1t08.flac:02267a440fcf61236731afd0dd5f63cc
gd1981-07-08s1t09.flac:6d07e892c1461b1d152d7d861c9f41de
gd1981-07-08s1t10.flac:e1e9a89beafee37c1a3d20acb8053273
gd1981-07-08s1t11.flac:0c346cf4414c0273cdf9235537de3c91
gd1981-07-08s1t12.flac:d6a8110aae59ba2136979be3ca18740a
gd1981-07-08s2t01.flac:9fc532b0d3a0deb21272e4f0c32de1b0
gd1981-07-08s2t02.flac:b3a5e3e87c0158d35d0905b71a6263a5
gd1981-07-08s2t03.flac:32186e5fdd3d065eee6d2fc905b4ec67
gd1981-07-08s2t04.flac:a4e9244a8d68f9e21429df363e193120
gd1981-07-08s2t05.flac:d15dbd74032a561b83c40715af832a57
gd1981-07-08s2t06.flac:bab233c02521b40d2fba69a0e970cfd3
gd1981-07-08s2t07.flac:6023745f8b7f7540eb075c069cbdbcca
gd1981-07-08s2t08.flac:078a0a16dec05ea4d579896601d3c599
gd1981-07-08s2t09.flac:55fbfae9cfc2db6530975bd50d830581
gd1981-07-08s2t10.flac:b421d81852a584184ad2b33a846842e3
gd1981-07-08s2t11.flac:d238158c23efc65a27a45a7e50e50d10
gd1981-07-08s2t12.flac:537962da7a0cc260fa15bf0e1e354a43
gd1981-07-08s2t13.flac:56cf17900e667b48bb17a2351256ce0d

Comments
Add Comment
Other Sources (comments)
(FOB) Neumann... (1) flac16; AUD:... (0) flac16; Source Info:... (0) flac24; Source Info:... (0)
Date User Comment