Browse Collections Artists Sources   Search Dates

Add Show    List Management    Help


Grateful Dead 07/08/81
Kiel Auditorium, St. Louis, MO
Comments Add Comment    Source Collectors    Add to Collection    Add to Want List    History
Source # 134092 Other Sources
Entered by Matt Vernon
Checksums ffp , flac-md5
Disc Counts 0 / 0
Media Size Compressed: 0.99 GB (1061269409 bytes)
Uncompressed: 1.64 GB (1764090476 bytes)
Date Circulated
Date Added
08/26/2015
08/26/2015
Source Summary flac16; AUD: Nakamichi CM300's > lead deck > Sony TC-D5 > Maxell XLII's. Recording by Jon Bernstein. Transfer: MAC > Nakamichi CR-5A > Edirol FA-66 > Wavelab 2448 > CD-Wave (24bit output) > R8Brain > TLH > FLAC 1644 tagged. Transferred by Andrew F. 08/2015 
  Archive
Source Information - Download Text | Download Zip
GRATEFUL DEAD
Kiel Auditorium
St Louis MO
07-08-1981

16bit/44.1kHz file-set

s1t01 crowd
s1t02 Mississippi Half Step >
s1t03 Feel Like a Stranger
s1t04 Peggy-O >
s1t05 Little Red Rooster
s1t06 Althea
s1t07 Me & My Uncle >
s1t08 Big River
s1t09 Don't Ease Me In >
s1t10 Minglewood Blues
s1t11 China Cat Sunflower >
s1t12 I Know You Rider

s2t01 crowd
s2t02 Scarlet Begonias >
s2t03 Fire on the Mountain
s2t04 Lost Sailor >
s2t05 Saint of Circumstance >
s2t06 Franklin's Tower >
s2t07 Jam >
s2t08 Drums >
s2t09 Space >
s2t10 Not Fade Away >
s2t11 Wharf Rat >
s2t12 Sugar Magnolia
s2t13 Encore: U.S. Blues

AUD: Nakamichi CM300's > lead deck > Sony TC-D5 > Maxell XLII's.
Recording by Jon Bernstein.

Transfer: MAC > Nakamichi CR-5A > Edirol FA-66 > Wavelab 2448 >
CD-Wave (24bit output) > R8Brain > TLH > FLAC 1644 tagged.
Transferred by Andrew F. 08/2015

Note: Mics are thought to have been Nak 300's, although it may be
mis-remembered; in any event the recording is great, thanks Jon!
Big explosions during Don't Ease, those were re-transferred at 10db
lower and patched back into the main source to make it less jarring.
Patches from ID-13301: crowd after FOTM 11:11 > Lost Sailor 0:05,
Jam 1:43 > 1:54, and Drums 0:15 > Space 0:11 (7:43).

    length     expanded size    cdr  WAVE problems  fmt   ratio  filename
     0:39.11        6905516 B   ---   --   ---xx   flac  0.5483  gd1981-07-08s1t01.flac
     8:01.33       84926060 B   ---   --   ---xx   flac  0.6049  gd1981-07-08s1t02.flac
     8:19.58       88160060 B   ---   --   ---xx   flac  0.5985  gd1981-07-08s1t03.flac
     6:53.02       72857948 B   ---   --   ---xx   flac  0.5843  gd1981-07-08s1t04.flac
     8:38.57       91509308 B   ---   --   ---xx   flac  0.5988  gd1981-07-08s1t05.flac
     8:35.70       91010684 B   ---   --   ---xx   flac  0.5990  gd1981-07-08s1t06.flac
     3:01.67       32086028 B   ---   --   ---xx   flac  0.6210  gd1981-07-08s1t07.flac
     6:20.46       67140236 B   ---   --   ---xx   flac  0.6259  gd1981-07-08s1t08.flac
     3:17.64       34901372 B   ---   --   ---xx   flac  0.6319  gd1981-07-08s1t09.flac
     7:30.06       79394156 B   ---   --   ---xx   flac  0.6222  gd1981-07-08s1t10.flac
     6:22.11       67410716 B   ---   --   ---xx   flac  0.6185  gd1981-07-08s1t11.flac
     5:25.17       57370028 B   ---   --   ---xx   flac  0.6210  gd1981-07-08s1t12.flac
     1:03.65       11266124 B   ---   --   ---xx   flac  0.5364  gd1981-07-08s2t01.flac
     9:18.54       98558252 B   ---   --   ---xx   flac  0.6190  gd1981-07-08s2t02.flac
    11:16.60      119387564 B   ---   --   ---xx   flac  0.6201  gd1981-07-08s2t03.flac
     7:05.12       74998268 B   ---   --   ---xx   flac  0.5849  gd1981-07-08s2t04.flac
     6:55.13       73236620 B   ---   --   ---xx   flac  0.6224  gd1981-07-08s2t05.flac
     9:50.50      104193644 B   ---   --   ---xx   flac  0.6138  gd1981-07-08s2t06.flac
     4:50.70       51320684 B   ---   --   ---xx   flac  0.5418  gd1981-07-08s2t07.flac
     7:47.22       82430588 B   ---   --   ---xx   flac  0.5505  gd1981-07-08s2t08.flac
     3:56.32       41705708 B   ---   --   ---xx   flac  0.5302  gd1981-07-08s2t09.flac
     6:56.05       73394204 B   ---   --   ---xx   flac  0.5975  gd1981-07-08s2t10.flac
     9:19.11       98633516 B   ---   --   ---xx   flac  0.5753  gd1981-07-08s2t11.flac
     9:38.31      102032156 B   ---   --   ---xx   flac  0.6268  gd1981-07-08s2t12.flac
     5:35.71       59261036 B   ---   --   ---xx   flac  0.6141  gd1981-07-08s2t13.flac
   166:40.38     1764090476 B                            0.6016  (25 files)

No errors occured.



Show Checksums
ffp
gd1981-07-08s1t01.flac:5bbba339f25837c290a57374ea630c71
gd1981-07-08s1t02.flac:55d6db44d9ec9e2b01566bf4af6952a9
gd1981-07-08s1t03.flac:857c4de88f9ec52967173146e6872608
gd1981-07-08s1t04.flac:1a0cb473088d89e860a0f6c6a77f7e33
gd1981-07-08s1t05.flac:94fe7a0a215968d576f66fa5653a02c4
gd1981-07-08s1t06.flac:d76e59d0cc59b66dea32b2b893d7a7a2
gd1981-07-08s1t07.flac:9e77ca36e7fb6edc687129b73fd74081
gd1981-07-08s1t08.flac:4f5e7efbea5a4d0e72e721053d7a1f5d
gd1981-07-08s1t09.flac:aedf8659b0abba735fda6c5580bb75e8
gd1981-07-08s1t10.flac:6a949c8455cc971f053fc2345f5e83e8
gd1981-07-08s1t11.flac:775e2de0fe4237fad4f72947725d2ce7
gd1981-07-08s1t12.flac:b414baedca704e20de60fceaecbfd176
gd1981-07-08s2t01.flac:77280321d6152f62847ade4ff69dfd5b
gd1981-07-08s2t02.flac:9675a71341f60e1c41ab561a83f5baf6
gd1981-07-08s2t03.flac:a91df50f092c11d27833b28363069285
gd1981-07-08s2t04.flac:584a60664fba8eb6829baf46fc9a7964
gd1981-07-08s2t05.flac:c2005fbdc32352bf5265c9d600faceb0
gd1981-07-08s2t06.flac:2cbec0737c6d3c36b26f626e6324f41f
gd1981-07-08s2t07.flac:62ed4a9effd44a9685f1814a80ce95a6
gd1981-07-08s2t08.flac:425444d49044a75466a2d6899e3715ab
gd1981-07-08s2t09.flac:4b1d78c3a07eb626d8d0d7a67b8dcc92
gd1981-07-08s2t10.flac:b44ff5c8cdeba7bba666aa8a505d045a
gd1981-07-08s2t11.flac:c6dee58ce16de1c893df278f6c56ef03
gd1981-07-08s2t12.flac:8dcbefd1f022bf93d9748d49503edd12
gd1981-07-08s2t13.flac:550ac0faf62c8a2d2afcaab3aa074bba
flac-md5
87edd7cb438b010222614803c9e3e27b *gd1981-07-08s1t01.flac
370c06c2274640fd41d857b6eff948d3 *gd1981-07-08s1t02.flac
ded6e15e341da920ca65c35bd5bad15a *gd1981-07-08s1t03.flac
c908c1005cc87e0776cd496bed90de32 *gd1981-07-08s1t04.flac
afe78b98088b8a8b8b1d935f53768094 *gd1981-07-08s1t05.flac
2069145f782e206f54b30f2a5c8597f6 *gd1981-07-08s1t06.flac
d12853c319fd14e55859e0c2053f085e *gd1981-07-08s1t07.flac
d51a18a38109a564875abf1e4ff9c358 *gd1981-07-08s1t08.flac
5d8c4faeb21d09daf7b7208ac27e7a1a *gd1981-07-08s1t09.flac
1da26fe1ad8d1b1e18400e36974e0a41 *gd1981-07-08s1t10.flac
549bd5b42194012816ce827604e7e554 *gd1981-07-08s1t11.flac
fd49541771f9d9ce6a71301846283227 *gd1981-07-08s1t12.flac
6c8e3dc283ccda915a00c1ce0728e7fe *gd1981-07-08s2t01.flac
cac84cde422e3e5505d2a0bc16ae1471 *gd1981-07-08s2t02.flac
e69aaeb00fc7b53ac8eee014d6c7c4e6 *gd1981-07-08s2t03.flac
1cc93930c3b5ead84b91a46da7abc163 *gd1981-07-08s2t04.flac
5615229a743ac1fc6409a2391f655707 *gd1981-07-08s2t05.flac
f20f6a549a826c75f89e28ec13d5dd66 *gd1981-07-08s2t06.flac
4c439d318835c0ff499d199f3b68ae47 *gd1981-07-08s2t07.flac
4485f6e686ade09ba9518f263cc0fc2d *gd1981-07-08s2t08.flac
e078b6636428535b935266115e1964a6 *gd1981-07-08s2t09.flac
689d381c85f545d36b2e95f90daf08cc *gd1981-07-08s2t10.flac
b7d6829d4af50c5d1ea1928173090136 *gd1981-07-08s2t11.flac
b31a112914230f181bb6cb3c160fa7ea *gd1981-07-08s2t12.flac
a948b1d6857cd9d01bd334d82edf30d3 *gd1981-07-08s2t13.flac

Comments
Add Comment
Other Sources (comments)
(FOB) Neumann... (1) flac24; AUD:... (0) flac16; Source Info:... (0) flac24; Source Info:... (0)
Date User Comment