Browse Collections Artists Sources   Search Dates

Add Show    List Management    Help


Phish 04/03/98
Nassau Veterans Memorial Coliseum, Uniondale, NY
Comments Add Comment    Source Collectors    Add to Collection    Add to Want List    History
Source # 134133 Other Sources
Entered by Terry Watts
Checksums FFP , FLAC MD5
Disc Counts 0 / 0
Media Size
Date Circulated
Date Added

09/04/2015
Source Summary flac16, 44kHz; (FOB) Schoeps mk4's > kcy > VMS02IB > Sony SBM-1 > Tascam DA-P1 > DAT(c); DAT(c) > Tascam DA-20 > RME 96/8 > SF5 > CDWave > FLAC; Source by unknown; DAT(c) provided by Derek G.; Transfer by Tim Rossi 
Source Information - Download Text | Download Zip
Phish
April 3, 1998
Nassau Coliseum
Uniondale, NY

Source: Schoeps MK 4's > KCY > VMS02IB > SBM1 > DA-P1  FOB
Lineage: Master Dat > 1st gen clone
Transfer: 1st gen clone > DA-20 > RME 96/8 pst > SF 5.0 > Cd Wave > mkw act(shn) > TLH Flac8
transfer done by Tim Rossi thanks to derek g. for the tapes

set I
Disc 1 (77:49)

01 Mike's Song  ->
02 Old Home Place >
03 Weekapaug Groove
04 Train Song
05 Billy Breathes
06 Beauty of My Dreams
07 Dogs Stole Things
08 Reba
09 My Soul



Set II
Disc 2 (65:39)

01 Roses Are Free  ->
02 Piper  >
03 Lovin Cup  >
04 Run Like an Antelope


Disc 3 (17:23)
Encore
01 Crowd noise
02 Carini  >
03 Halley's Comet  >
04 Tweezer Reprise



    length     expanded size    cdr  WAVE problems  fmt   ratio  filename
    14:31.03      153651500 B   ---   --   ---xx   flac  0.5743  ph1998-04-03d1t01.flac
     3:16.33       34652060 B   ---   --   ---xx   flac  0.5703  ph1998-04-03d1t02.flac
    16:28.41      174379676 B   ---   --   ---xx   flac  0.5676  ph1998-04-03d1t03.flac
     2:58.55       31528604 B   ---   --   ---xx   flac  0.4586  ph1998-04-03d1t04.flac
     7:39.68       81127580 B   ---   --   ---xx   flac  0.5304  ph1998-04-03d1t05.flac
     2:39.37       28134668 B   ---   --   ---xx   flac  0.5603  ph1998-04-03d1t06.flac
     5:02.25       53331644 B   ---   --   ---xx   flac  0.5955  ph1998-04-03d1t07.flac
    16:42.23      176806940 B   ---   --   ---xx   flac  0.5701  ph1998-04-03d1t08.flac
     8:28.48       89724140 B   ---   --   ---xx   flac  0.6107  ph1998-04-03d1t09.flac
    27:55.35      295552364 B   ---   --   ---xx   flac  0.5808  ph1998-04-03d2t01.flac
    16:15.00      171990044 B   ---   --   ---xx   flac  0.5648  ph1998-04-03d2t02.flac
     6:56.05       73394204 B   ---   --   ---xx   flac  0.6243  ph1998-04-03d2t03.flac
    14:30.49      153583292 B   ---   --   ---xx   flac  0.5794  ph1998-04-03d2t04.flac
     3:02.72       32274188 B   ---   --   ---xx   flac  0.5449  ph1998-04-03d3t01.flac
     4:36.26       48747596 B   ---   --   ---xx   flac  0.6344  ph1998-04-03d3t02.flac
     6:16.56       66458156 B   ---   --   ---xx   flac  0.6009  ph1998-04-03d3t03.flac
     3:25.17       36202028 B   ---   --   ---xx   flac  0.6283  ph1998-04-03d3t04.flac
   160:45.68     1701538684 B                            0.5774  (17 files)




Show Checksums
FFP
ph1998-04-03d1t01.flac:7d6b219730540421894c5c2b12ddf875
ph1998-04-03d1t02.flac:1841444e226ef8d53b0697463ea485af
ph1998-04-03d1t03.flac:435f9d9cf46405092623c000ec636526
ph1998-04-03d1t04.flac:b0a08af1c8108874b381c3aac0758a08
ph1998-04-03d1t05.flac:c6d0cf0ff48bd159a71ce1560e927790
ph1998-04-03d1t06.flac:cd747475fe39d6dc827f08c31bcd33c7
ph1998-04-03d1t07.flac:7ab0df54ce2807bd1801478709bf6715
ph1998-04-03d1t08.flac:0f5992b9eeb7c1851842e6234c6719cd
ph1998-04-03d1t09.flac:fffe0ab4edbde9cab7271ad0c8c9a30b
ph1998-04-03d2t01.flac:3c642be70fc095132e57615a9fac7d96
ph1998-04-03d2t02.flac:1db0667e371f97d459493cb8e3139b89
ph1998-04-03d2t03.flac:fa64637d8abdd67ba987e782d51d7167
ph1998-04-03d2t04.flac:b744f459f7cf4d5a5f9659d1ec1a7b14
ph1998-04-03d3t01.flac:89e31d62a84cc3378ee0e6d3d63fb05e
ph1998-04-03d3t02.flac:c154a54b9ec772cc1e7b5de3f736e1f7
ph1998-04-03d3t03.flac:f4e0fa6a06f07a6618eb771585173bbc
ph1998-04-03d3t04.flac:87f5108abe460eaf692e96a8ca600a42
FLAC MD5
7c4002b703a7bf884a28b212bdc8a18d *ph1998-04-03d1t01.flac
5b6f81dcd6cc3f99c02e17f53987a353 *ph1998-04-03d1t02.flac
ea3037201f43156f67f4ff01172f9119 *ph1998-04-03d1t03.flac
8b75c76de5a37d047bfec7c6567bac0d *ph1998-04-03d1t04.flac
207531ec6b5c38c9b34b7fc273cde50c *ph1998-04-03d1t05.flac
e81878d0a22136a6e94cfd8e04fc655d *ph1998-04-03d1t06.flac
45d7741fccbe745b6da3e13c0ea63136 *ph1998-04-03d1t07.flac
2ac12cd2a040a0bd399ccabf7dd80ed8 *ph1998-04-03d1t08.flac
6b0be6dcd30abea411f004dac92710d4 *ph1998-04-03d1t09.flac
e7bfcec82c46e188d0fa4a390c158c81 *ph1998-04-03d2t01.flac
02f6c3fdf4314c8707425977339ffef4 *ph1998-04-03d2t02.flac
b6549e8afa58a477d7f35b3f7f9e6f4a *ph1998-04-03d2t03.flac
7aa71f97c0319a66360b5613f66593b4 *ph1998-04-03d2t04.flac
854b6b4384225dc6612431a450a91b7c *ph1998-04-03d3t01.flac
927b1de3ada4c17e73645e396cf3ef0c *ph1998-04-03d3t02.flac
f2ab80ba58f1f1da1b69e0649f533f2b *ph1998-04-03d3t03.flac
024ad4e4c938efb02dc408447ab83de3 *ph1998-04-03d3t04.flac

Comments
Add Comment
Other Sources (comments)
DAUD (specs unknown) (3) AKG 461s > D8 > standalone... (12) Neumann... (5) Schoeps CMC6/mk41 > Sonosax... (2) FOB Neumann km140 > Beyer... (1) flac16, 44kHz; (FOB)... (0) flac16; 48kHz;... (0) flac16, 44kHz; AKG... (0) flac16, 48kHz;... (0) flac16, 48kHz;... (0) flac16, 48kHz;... (0) flac16, 48kHz;... (0)
Date User Comment