Browse Collections Artists Sources   Search Dates

Add Show    List Management    Help


Grateful Dead 09/20/87
Madison Square Garden, New York, NY
Comments Add Comment    Source Collectors    Add to Collection    Add to Want List    History
Source # 134352 Other Sources
Entered by Matt Vernon
Checksums flac-md5 , ffp
Disc Counts 0 / 0
Media Size Compressed: 787 MB (825229312 bytes)
Uncompressed: 1.49 GB (1598697704 bytes)
Date Circulated
Date Added
09/17/2015
09/17/2015
Source Summary flac16; (original shnid = 16128) Master PCM>?>DAT>SONIC SOLUTIONS>CD>CD > EAC[secure] > SHN; resliceD - pitch correction and patches by Kevin Tobin 
  Archive
Source Information - Download Text | Download Zip
Grateful Dead
Madison Square Garden
New York, New York
September 20, 1987

Patched and pitch corrected Soundboard

Set 1:
d1t01 - Funiculi Funicula & Addams Family Theme
d1t02 - Jack Straw
d1t03 - West LA Fadeaway
d1t04 - My Brother Esau
d1t05 - Far from Me
d1t06 - It Must Have Been the Roses
d1t07 - Desolation Row->
d1t08 - Might as Well->
d1t09 - Promised Land

Set 2:
d2t01 - Tuning
d2t02 - Hell in a Bucket->
d2t03 - Iko Iko->
d2t04 - Looks Like Rain->
d2t05 - He's Gone->
d2t06 - Drums
d3t01 - Space->
d3t02 - The Other One->
d3t03 - Wharf Rat->
d3t04 - Throwing Stones->
d3t05 - Not Fade Away

Encore:
d3t06 - Touch of Grey->
d3t07 - Brokedown Palace

Audio Information:
Original SBD (shnid=16128)
Master PCM>?>DAT>SONIC SOLUTIONS>CD>CD > EAC[secure] > SHN

Notes:
There 5 instances of multiple songs tracked together on the original Gans source.
I recut them for my (anal)collection and offer them up to the rest of yas
this way. Don't mean to look a gift horse in the mouth... thanks so much for this
great and long awaited show David!
... remember this is _my_ problem ; )
Show retracked on "natural" song indexes via CDWav.
03-20-03 - eD

SBD was patched with:
AUD (shnid = 82460)
Source: Nakamichi CM304's>Sony D5M
Location: OTS, Stand at 9 Feet
Transfer: Nak CR5A>Lunatec V3(analog out)>[email protected]/96
Editing: Adobe Audition 2.0 dither and resample 16Bit>Cdwav/tracking>flac16
Tapers: Tony Suraci
Transfer and upload by Tony Suraci aka nak700
---------------------------------------------------------
- Mixed by [email protected]
- FLAC conversion 17-SEP-2015 - Trader Little Helper
- Tagged 17-SEP-2015 - Tag&Rename
---------------------------------------------------------
Only minor patching - 1st set started with 12 seconds missing from about 1 minute into Jack Straw and then some additional dead air before My Brother Esau and Far From Me to match video tracks. 2nd set had 20 seconds overlapping towards the end of Drums that needed to be deleted.  Speedwise the soundboard was very close compared to other recordings.

Brokedown House Production

    length     expanded size    cdr  WAVE problems  fmt   ratio  filename
     4:19.19       45732332 B   ---   --   -----    wav  1.0000  gd1987-09-20d1t01.wav
     6:29.64       68770172 B   ---   --   -----    wav  1.0000  gd1987-09-20d1t02.wav
     9:10.25       97078844 B   ---   --   -----    wav  1.0000  gd1987-09-20d1t03.wav
     5:23.48       57090140 B   ---   --   -----    wav  1.0000  gd1987-09-20d1t04.wav
     4:45.73       50445740 B   ---   --   -----    wav  1.0000  gd1987-09-20d1t05.wav
     6:00.50       63621644 B   ---   --   -----    wav  1.0000  gd1987-09-20d1t06.wav
    10:45.44      113881532 B   ---   --   -----    wav  1.0000  gd1987-09-20d1t07.wav
     4:43.46       50029436 B   ---   --   -----    wav  1.0000  gd1987-09-20d1t08.wav
     4:16.72       45327788 B   ---   --   -----    wav  1.0000  gd1987-09-20d1t09.wav
     0:28.44        5042732 B   ---   --   -----    wav  1.0000  gd1987-09-20d2t01.wav
     6:08.68       65075180 B   ---   --   -----    wav  1.0000  gd1987-09-20d2t02.wav
     6:24.23       67791740 B   ---   --   -----    wav  1.0000  gd1987-09-20d2t03.wav
     9:36.31      101679356 B   ---   --   -----    wav  1.0000  gd1987-09-20d2t04.wav
    10:16.09      108683612 B   ---   --   -----    wav  1.0000  gd1987-09-20d2t05.wav
    10:05.64      106872572 B   ---   --   -----    wav  1.0000  gd1987-09-20d2t06.wav
     8:11.57       86746508 B   ---   --   -----    wav  1.0000  gd1987-09-20d3t01.wav
     5:29.50       58153244 B   ---   --   -----    wav  1.0000  gd1987-09-20d3t02.wav
     8:09.43       86360780 B   ---   --   -----    wav  1.0000  gd1987-09-20d3t03.wav
     9:07.29       96559052 B   ---   --   -----    wav  1.0000  gd1987-09-20d3t04.wav
     9:29.33      100449260 B   ---   --   -----    wav  1.0000  gd1987-09-20d3t05.wav
     6:05.29       64454252 B   ---   --   -----    wav  1.0000  gd1987-09-20d3t06.wav
     5:33.47       58851788 B   ---   --   -----    wav  1.0000  gd1987-09-20d3t07.wav
   151:02.68     1598697704 B                            1.0000  (22 files)





Show Checksums
flac-md5
58b5c811055bfebd3548e2f95a92692c *gd1987-09-20d1t01.flac
7606da36f1c513b8820eaaf9de0f6a9c *gd1987-09-20d1t02.flac
a0bff9c8593cbca1aabf108cc425cc07 *gd1987-09-20d1t03.flac
d9212afb41db08d79fb198c81c72a852 *gd1987-09-20d1t04.flac
317979f190a4040f31c251cc0381e3da *gd1987-09-20d1t05.flac
7ed89f5cadcfb4466b62944ae022647c *gd1987-09-20d1t06.flac
81a9531e12c94a6b4a2b38a45ce78013 *gd1987-09-20d1t07.flac
f6713ad28af03bb86d20b12d95e1c0b8 *gd1987-09-20d1t08.flac
f9e1dd7478c3b6fdea1aca368dd2cb6f *gd1987-09-20d1t09.flac
cec026d82ffe24d0fa6f5aa87a2d1b99 *gd1987-09-20d2t01.flac
6064b40624064c5e957c92bacf49bfe6 *gd1987-09-20d2t02.flac
10e04660d6a5857eb6e7333e83421c4a *gd1987-09-20d2t03.flac
80f69763b97faa799400fedc4d4417eb *gd1987-09-20d2t04.flac
f28c375d704b966a1bf38c2bbb10a60b *gd1987-09-20d2t05.flac
52638b0dc68f99579e7f0ed57f91529d *gd1987-09-20d2t06.flac
ace3382988685233a0dce092cad68aaa *gd1987-09-20d3t01.flac
5fc0b22e48c737f7af35f39e08c572d6 *gd1987-09-20d3t02.flac
fe4ce079a42f006c71d53891dc56ed02 *gd1987-09-20d3t03.flac
2c46df8f92959cc77d13582d5ef14c29 *gd1987-09-20d3t04.flac
04e998b437bcdd4de8048e531789facd *gd1987-09-20d3t05.flac
79ae3c8a570af4a394f22cac3eb898c2 *gd1987-09-20d3t06.flac
4b3c91a358b27a1ef007dd106c0ab855 *gd1987-09-20d3t07.flac
10f7c1914ac032399898dc1008aeaa32 *gd87-09-20.sbd.m3u
d6bd4d9cc29ae94922829ce7a886e022 *gd87-09-20.sbd.txt
ffp
gd1987-09-20d1t01.flac:e83895a45fd4f9324e6f96b69452dd1f
gd1987-09-20d1t02.flac:4e7b28c01c7299427effbb70f079084b
gd1987-09-20d1t03.flac:e78a97bc58c2a4f3f7717e368677f0f2
gd1987-09-20d1t04.flac:b0cc76aa5d13a5b3cf6ba51d1113560c
gd1987-09-20d1t05.flac:4195e92f742a625f323fb65b420737dc
gd1987-09-20d1t06.flac:7f2c2cafa2393c14fb8315b8606df944
gd1987-09-20d1t07.flac:93618b5d5a8fbf273bf6f8dfd6b4868e
gd1987-09-20d1t08.flac:621f7bfd23ea2b7fb69891cf650d4e7a
gd1987-09-20d1t09.flac:6eb612a95ba628cbac2b2b24ae8efb8b
gd1987-09-20d2t01.flac:fcc3e9b8e9a280fc0d4d2c7348f09b3f
gd1987-09-20d2t02.flac:1fe20faa0837f16c50bab56cf36fc65b
gd1987-09-20d2t03.flac:1630756028c134109978718bc1cbbf1c
gd1987-09-20d2t04.flac:9742e57d99173c8dad2bb8f7f1ff8d49
gd1987-09-20d2t05.flac:8cda285213b2b7215fc0154f09096ea8
gd1987-09-20d2t06.flac:3a838959a4528a125794da9802edde8e
gd1987-09-20d3t01.flac:f8f364ee4704ae9210aacfd5d6200deb
gd1987-09-20d3t02.flac:e91d0778e77ff261a5d3038e6bea18dc
gd1987-09-20d3t03.flac:6f32e6d8bb14e03c9f588fed07858f10
gd1987-09-20d3t04.flac:e661b8b852f479dbf597ae23fd78e22d
gd1987-09-20d3t05.flac:2dfbc74630b69e0ea24a182617e28735
gd1987-09-20d3t06.flac:2a79723f687448282c4261d9f4fea386
gd1987-09-20d3t07.flac:0b402a3218f9089a5df6996597be78fe

Comments
Add Comment
Other Sources (comments)
AUD (Schoeps CMC... (0) Master PCM>?>DAT>SONIC... (1) Master PCM>?>DAT>SONIC... (5) Seamless fix of (1) flac16; Source:... (0) flac16; taper : Joe... (1) flac16; Source:... (1) flac24; OTS AUD: 2x... (0) flac16; Taper: M.... (0) flac16; Master... (0) flac24; Master... (0) flac16; Matrix 2... (0) DTS-Audio-CD 5.1... (0) flac24; Master... (0) flac16; Master... (0) flac24; Recording... (0) flac16; Recording... (0) flac16; Source Info:... (0)
Date User Comment
11/30/2016 charliemiller This is from a cassette master.